<?xml version="1.0" standalone="no"?>
<!DOCTYPE svg PUBLIC "-//W3C//DTD SVG 1.1//EN" "http://www.w3.org/Graphics/SVG/1.1/DTD/svg11.dtd" >
<svg xmlns="http://www.w3.org/2000/svg" xmlns:xlink="http://www.w3.org/1999/xlink" version="1.1">
<metadata></metadata>
<defs>
<font id="visby_cfdemi_bold" horiz-adv-x="1290" >
<font-face units-per-em="2048" ascent="1638" descent="-410" />
<missing-glyph horiz-adv-x="430" />
<glyph unicode="&#xfb01;" horiz-adv-x="1153" d="M41 883v182h129v80q0 83 22.5 148t56 102.5t79.5 61t87 32t83 8.5q115 0 182 -41v-178q-50 27 -123 27q-160 0 -160 -175v-65h643v-1065h-225v883h-418v-883h-227v883h-129zM815 1251v203h225v-203h-225z" />
<glyph horiz-adv-x="0" />
<glyph horiz-adv-x="682" />
<glyph unicode=" "  horiz-adv-x="430" />
<glyph unicode="&#x09;" horiz-adv-x="430" />
<glyph unicode="&#xa0;" horiz-adv-x="430" />
<glyph unicode="!" horiz-adv-x="487" d="M113 113q0 57 38 94t93 37q56 0 94.5 -36.5t38.5 -94.5t-38.5 -95.5t-94.5 -37.5q-55 0 -93 37.5t-38 95.5zM127 434v1020h233v-1020h-233z" />
<glyph unicode="&#x22;" horiz-adv-x="632" d="M72 954v500h198v-500h-198zM362 954v500h199v-500h-199z" />
<glyph unicode="#" horiz-adv-x="1126" d="M92 369v200h121l23 297h-144v199h158l26 369h232l-27 -369h203l27 369h231l-27 -369h119v-199h-133l-20 -297h153v-200h-168l-26 -369h-232l27 369h-203l-26 -369h-234l27 369h-107zM446 569h203l21 297h-203z" />
<glyph unicode="$" horiz-adv-x="899" d="M61 467l185 51q18 -72 69.5 -117t130.5 -45q69 0 117.5 36t48.5 102q0 50 -34.5 84t-112.5 65l-115 43q-250 97 -250 301q0 115 79.5 192.5t203.5 96.5v178h149v-182q104 -19 176 -84.5t95 -163.5l-178 -47q-44 123 -164 123q-62 0 -100.5 -31.5t-38.5 -83.5 q0 -89 131 -137l104 -41q62 -23 107 -47.5t87.5 -60.5t64.5 -88t22 -117q0 -132 -85.5 -213t-220.5 -101v-180h-149v178q-130 15 -215.5 90t-106.5 199z" />
<glyph unicode="%" horiz-adv-x="1429" d="M72 1212q0 106 74 179t180 73t180 -73t74 -179q0 -105 -74 -178t-180 -73t-180 73t-74 178zM178 109l879 1349l170 -108l-875 -1350zM225 1212q0 -44 29 -72t72 -28t71.5 28t28.5 72t-28.5 72.5t-71.5 28.5t-72 -28.5t-29 -72.5zM850 242q0 106 74 179t180 73t180 -73 t74 -179t-74 -179t-180 -73t-180 73t-74 179zM1004 242q0 -44 28.5 -72.5t71.5 -28.5t71.5 28.5t28.5 72.5t-28.5 72t-71.5 28t-71.5 -28t-28.5 -72z" />
<glyph unicode="&#x26;" horiz-adv-x="1415" d="M92 455q0 100 31.5 183t85 138t118 88t134.5 43l-266 547h786v-188h-510l234 -504h-62q-142 0 -230.5 -78.5t-88.5 -212.5q0 -135 88.5 -213t212.5 -78q137 0 232 89t95 243v367h367v-183h-154v-397q0 -49 25.5 -79t75.5 -30q41 0 80 19v-178q-38 -43 -134 -43 q-93 0 -146.5 58.5t-53.5 158.5v26q-46 -110 -156 -180.5t-272 -70.5q-134 0 -244.5 55t-179 164.5t-68.5 255.5z" />
<glyph unicode="'" horiz-adv-x="342" d="M72 954v500h198v-500h-198z" />
<glyph unicode="(" horiz-adv-x="622" d="M92 655q0 507 217 871h221q-206 -375 -206 -871q0 -524 206 -921h-221q-217 388 -217 921z" />
<glyph unicode=")" horiz-adv-x="622" d="M92 -266q207 398 207 921q0 494 -207 871h221q217 -364 217 -871q0 -533 -217 -921h-221z" />
<glyph unicode="*" horiz-adv-x="1026" d="M154 1135l47 192l221 -65l-6 231h190l-2 -231l221 65l47 -192l-206 -58l139 -184l-166 -105l-125 181l-127 -181l-166 105l139 184z" />
<glyph unicode="+" horiz-adv-x="935" d="M92 483v189h281v280h188v-280h283v-189h-283v-280h-188v280h-281z" />
<glyph unicode="," horiz-adv-x="487" d="M51 -279l176 500h199l-178 -500h-197z" />
<glyph unicode="-" horiz-adv-x="819" d="M92 473v189h635v-189h-635z" />
<glyph unicode="." horiz-adv-x="407" d="M72 113q0 57 38 94t93 37q56 0 94.5 -36.5t38.5 -94.5t-38.5 -95.5t-94.5 -37.5q-55 0 -93 37.5t-38 95.5z" />
<glyph unicode="/" horiz-adv-x="993" d="M102 0l594 1536h238l-594 -1536h-238z" />
<glyph unicode="0" horiz-adv-x="1658" d="M92 727q0 163 59.5 304.5t160 237.5t235 151t282.5 55t282.5 -55t235.5 -151t160.5 -237.5t59.5 -304.5t-59.5 -304t-160.5 -237.5t-235.5 -151t-282.5 -54.5t-282.5 54.5t-235 151t-160 237.5t-59.5 304zM324 727q0 -117 40.5 -217.5t109 -169.5t161 -108t194.5 -39 q101 0 193.5 39t161.5 108t110 169.5t41 217.5t-41 218t-110 170t-161.5 108t-193.5 39q-102 0 -194.5 -39t-161 -108t-109 -170t-40.5 -218z" />
<glyph unicode="1" horiz-adv-x="714" d="M113 1243v211h450v-1454h-227v1243h-223z" />
<glyph unicode="2" horiz-adv-x="1112" d="M72 0l467 604q138 180 167 223q70 107 74 198v15q0 59 -19 103.5t-52 69.5t-71 37t-81 12q-97 0 -167.5 -62.5t-70.5 -187.5v-37h-229v57q0 124 53 223t161.5 159.5t256.5 60.5q208 0 333.5 -114.5t125.5 -289.5q0 -32 -4 -63t-14.5 -62.5t-19 -55.5t-27.5 -56 t-29.5 -50.5t-36 -52.5t-36 -47.5t-39.5 -50t-38 -47.5l-303 -383h547v-203h-948z" />
<glyph unicode="3" horiz-adv-x="1175" d="M82 297l170 102q41 -105 123.5 -162t187.5 -57q126 0 212.5 78t86.5 215q0 82 -34.5 147t-93.5 100.5t-138.5 44t-169.5 -21.5l289 512h-553v199h882l-321 -551q72 -9 137.5 -43t118 -89.5t84 -136.5t31.5 -175q0 -144 -71 -254t-190 -167.5t-264 -57.5 q-179 0 -308.5 88.5t-178.5 228.5z" />
<glyph unicode="4" horiz-adv-x="1161" d="M82 348v199l623 907h231v-907h154v-199h-154v-348h-231v348h-623zM311 547h394v592z" />
<glyph unicode="5" horiz-adv-x="1148" d="M72 276l176 97q25 -72 105 -130.5t190 -58.5q124 0 212.5 78.5t88.5 218.5q0 136 -85 219.5t-210 83.5q-90 0 -158 -40.5t-106 -96.5l-181 76l97 731h723v-199h-543l-55 -378q27 36 100.5 66t169.5 30q93 0 177.5 -34t150 -95.5t104.5 -155t39 -205.5q0 -152 -70.5 -268 t-188 -175.5t-261.5 -59.5q-172 0 -297 82t-178 214z" />
<glyph unicode="6" horiz-adv-x="1126" d="M82 453q0 100 38 203.5t70.5 155t96.5 138.5q8 12 12 17l350 487h258l-420 -582q62 19 125 19q181 0 306.5 -125t125.5 -322q0 -139 -67.5 -246.5t-176.5 -162.5t-239 -55t-238 55.5t-174.5 165t-66.5 252.5zM297 438q0 -113 75.5 -186.5t190.5 -73.5t190.5 73.5 t75.5 186.5q0 115 -75.5 187.5t-190.5 72.5t-190.5 -72.5t-75.5 -187.5z" />
<glyph unicode="7" horiz-adv-x="1030" d="M61 1255v199h908l-582 -1454h-227l508 1255h-607z" />
<glyph unicode="8" horiz-adv-x="1140" d="M82 426q0 135 66 236t171 149q-68 48 -109.5 125t-41.5 170q0 152 110.5 260.5t290.5 108.5q181 0 292.5 -108.5t111.5 -260.5q0 -93 -42 -170t-110 -125q104 -49 171 -149.5t67 -235.5q0 -102 -40.5 -187t-108.5 -141t-156.5 -87t-184.5 -31t-183.5 31t-155 87t-108 141 t-40.5 187zM309 440q0 -111 75.5 -181.5t184.5 -70.5t184.5 70.5t75.5 181.5q0 113 -75.5 182.5t-184.5 69.5q-108 0 -184 -70t-76 -182zM375 1087q0 -80 55 -137t139 -57t139.5 57t55.5 137q0 83 -55 138t-140 55q-84 0 -139 -55.5t-55 -137.5z" />
<glyph unicode="9" horiz-adv-x="1126" d="M82 1010q0 139 67.5 246.5t176.5 163t239 55.5t238 -56t174.5 -165.5t66.5 -252.5q0 -100 -38 -203.5t-70.5 -155t-96.5 -138.5q-8 -12 -12 -17l-350 -487h-258l420 582q-62 -19 -125 -19q-181 0 -306.5 125t-125.5 322zM297 1016q0 -115 75.5 -187.5t190.5 -72.5 t190.5 72.5t75.5 187.5q0 113 -75.5 186.5t-190.5 73.5t-190.5 -73.5t-75.5 -186.5z" />
<glyph unicode=":" horiz-adv-x="468" d="M102 113q0 57 38 94t93 37q57 0 95.5 -36.5t38.5 -94.5t-39 -95.5t-95 -37.5q-55 0 -93 37.5t-38 95.5zM102 928q0 57 38 94t93 37q57 0 95.5 -36.5t38.5 -94.5t-39 -95.5t-95 -37.5q-55 0 -93 37.5t-38 95.5z" />
<glyph unicode=";" horiz-adv-x="518" d="M51 -279l176 500h199l-178 -500h-197zM182 928q0 57 38 94t93 37q56 0 94.5 -36.5t38.5 -94.5t-38.5 -95.5t-94.5 -37.5q-55 0 -93 37.5t-38 95.5z" />
<glyph unicode="&#x3c;" horiz-adv-x="1017" d="M92 414v157l854 414v-217l-581 -276l581 -273v-219z" />
<glyph unicode="=" horiz-adv-x="870" d="M92 303v189h686v-189h-686zM92 643v188h686v-188h-686z" />
<glyph unicode="&#x3e;" horiz-adv-x="1017" d="M72 0v219l581 273l-581 276v217l854 -414v-157z" />
<glyph unicode="?" horiz-adv-x="1048" d="M61 993v29q0 217 126 335t345 118q212 0 333.5 -108t121.5 -286q0 -70 -19.5 -128t-51 -97.5t-69.5 -73.5t-76 -64.5t-69.5 -62t-51 -74t-19.5 -92.5v-63h-232v61q0 70 19.5 127t51 95.5t70 71.5t76.5 61.5t69.5 58t51 69t19.5 87.5q0 86 -59 151.5t-167 65.5 q-116 0 -179.5 -73t-63.5 -179v-29h-226zM381 113q0 57 38 94t93 37q56 0 94.5 -36.5t38.5 -94.5t-38.5 -95.5t-94.5 -37.5q-55 0 -93 37.5t-38 95.5z" />
<glyph unicode="@" horiz-adv-x="1638" d="M92 729q0 131 40 249.5t111.5 207.5t165 155t204.5 100t227 34q141 0 268.5 -50.5t225 -142t155 -228.5t57.5 -300q0 -205 -85.5 -308.5t-211.5 -103.5q-94 0 -148.5 51.5t-70.5 120.5q-27 -63 -95 -116.5t-163 -53.5q-59 0 -113.5 23.5t-99.5 68t-71.5 119t-26.5 168.5 q0 92 26 165t70.5 117.5t99 67.5t115.5 23q49 0 90 -14.5t68 -38t42 -42t25 -36.5l23 114h125v-438q0 -65 25 -99t69 -34q107 0 107 219q0 135 -39.5 243t-109.5 177.5t-162 106t-199 36.5q-150 0 -273 -68.5t-196.5 -197.5t-73.5 -295q0 -172 74.5 -302t198.5 -196.5 t278 -66.5q177 0 311 84v-195q-140 -73 -319 -73q-149 0 -284.5 54t-237.5 150t-162 237.5t-60 307.5zM649 723q0 -95 44 -150t116 -55q71 0 115.5 55t44.5 150q0 93 -44.5 146t-115.5 53q-72 0 -116 -53t-44 -146z" />
<glyph unicode="A" horiz-adv-x="1437" d="M31 0l567 1454h240l569 -1454h-250l-113 297h-651l-112 -297h-250zM473 512h492l-246 649z" />
<glyph unicode="B" horiz-adv-x="1181" d="M113 0v1454h516q183 0 289 -99t106 -247q0 -106 -56 -185t-147 -114q130 -33 210.5 -132t80.5 -255q0 -192 -128 -307t-370 -115h-501zM344 205h256q140 0 211.5 62.5t71.5 176.5q0 115 -72.5 182.5t-214.5 67.5h-252v-489zM344 874h238q106 0 162.5 52.5t56.5 140.5 q0 86 -56 134t-163 48h-238v-375z" />
<glyph unicode="C" horiz-adv-x="1486" d="M92 727q0 165 59.5 306t160.5 237t237.5 150.5t288.5 54.5q76 0 149 -14t151 -46.5t150 -94t127 -146.5l-168 -119q-75 103 -181 150.5t-222 47.5q-106 0 -200.5 -38t-163.5 -105t-109.5 -166.5t-40.5 -216.5q0 -157 69.5 -278t186.5 -184.5t260 -63.5q258 0 401 198 l168 -118q-55 -85 -127 -146.5t-150 -94t-151 -46.5t-149 -14q-204 0 -373.5 92t-271 264t-101.5 391z" />
<glyph unicode="D" horiz-adv-x="1374" d="M113 0v1454h483q205 0 366.5 -91.5t252 -257.5t90.5 -378t-90.5 -378t-252 -257.5t-366.5 -91.5h-483zM344 219h244q227 0 352 138t125 370t-125 370t-352 138h-244v-1016z" />
<glyph unicode="E" horiz-adv-x="1013" d="M113 0v1454h802v-215h-571v-403h483v-209h-483v-412h590v-215h-821z" />
<glyph unicode="F" horiz-adv-x="993" d="M113 0v1454h800v-211h-569v-414h524v-196h-524v-633h-231z" />
<glyph unicode="G" horiz-adv-x="1597" d="M92 727q0 164 59.5 305.5t161 237.5t238.5 150.5t289 54.5q75 0 148 -14t151 -46.5t150.5 -94t127.5 -146.5l-168 -119q-143 198 -405 198q-144 0 -260 -63t-185 -184t-69 -279q0 -118 40 -218.5t109 -168.5t163.5 -106.5t201.5 -38.5q80 0 150 21.5t129 65t99.5 116.5 t55.5 169h-379v195h604q5 -51 5 -101q0 -88 -17 -169q-27 -126 -88 -218.5t-148.5 -159.5t-195 -100.5t-225.5 -33.5q-150 0 -285 54.5t-236.5 150t-161 237t-59.5 305.5z" />
<glyph unicode="H" horiz-adv-x="1343" d="M113 0v1454h231v-625h655v625h232v-1454h-232v614h-655v-614h-231z" />
<glyph unicode="I" horiz-adv-x="454" d="M113 0v1454h231v-1454h-231z" />
<glyph unicode="J" horiz-adv-x="1028" d="M51 188l148 150q94 -135 241 -135q34 0 65 7t65 26.5t59 50.5t41 84t16 121v962h232v-993q0 -102 -27 -184.5t-71.5 -137t-105.5 -91t-126.5 -52.5t-136.5 -16q-136 0 -238.5 55t-161.5 153z" />
<glyph unicode="K" horiz-adv-x="1302" d="M113 0v1454h231v-723l608 723h262l-563 -666l613 -788h-258l-494 625l-168 -199v-426h-231z" />
<glyph unicode="L" horiz-adv-x="1013" d="M113 0v1454h231v-1239h600v-215h-831z" />
<glyph unicode="M" horiz-adv-x="1769" d="M113 0v1454h256l516 -1157l518 1157h256v-1454h-232v1004h-10l-446 -1004h-172l-445 1004h-10v-1004h-231z" />
<glyph unicode="N" horiz-adv-x="1435" d="M113 0v1454h231l737 -1071h11v1071h231v-1454h-233l-736 1071h-10v-1071h-231z" />
<glyph unicode="O" horiz-adv-x="1671" d="M92 727q0 163 60 304.5t161.5 237.5t237 151t285.5 55q149 0 284.5 -55t237 -151t161.5 -237.5t60 -304.5t-60 -304t-161.5 -237.5t-237 -151t-284.5 -54.5q-150 0 -285.5 54.5t-237 151t-161.5 237.5t-60 304zM330 727q0 -155 70.5 -276.5t185 -185.5t250.5 -64 t250.5 64t184.5 185.5t70 276.5t-70 276.5t-184.5 185.5t-250.5 64t-250.5 -64t-185 -185.5t-70.5 -276.5z" />
<glyph unicode="P" horiz-adv-x="1189" d="M113 0v1454h495q233 0 371.5 -133.5t138.5 -351.5q0 -217 -138.5 -350.5t-371.5 -133.5h-264v-485h-231zM344 700h242q139 0 218 67t79 202t-79 202.5t-218 67.5h-242v-539z" />
<glyph unicode="Q" horiz-adv-x="1671" d="M92 727q0 163 60 304.5t161.5 237.5t237 151t285.5 55q149 0 284.5 -55t237 -151t161.5 -237.5t60 -304.5q0 -153 -52 -285t-145 -231l168 -211h-264l-65 82q-175 -102 -385 -102q-150 0 -285.5 54.5t-237 151t-161.5 237.5t-60 304zM330 727q0 -155 70.5 -276.5 t185 -185.5t250.5 -64q133 0 243 61l-288 363h264l180 -228q106 134 106 330q0 155 -70 276.5t-184.5 185.5t-250.5 64t-250.5 -64t-185 -185.5t-70.5 -276.5z" />
<glyph unicode="R" horiz-adv-x="1241" d="M113 0v1454h491q229 0 366.5 -133.5t137.5 -351.5q0 -157 -75 -270t-210 -164l348 -535h-247l-318 498h-2h-260v-498h-231zM344 700h234q138 0 216 67t78 202t-78 202.5t-216 67.5h-234v-539z" />
<glyph unicode="S" horiz-adv-x="1107" d="M61 338l189 86q32 -103 112.5 -167t196.5 -64q106 0 177 55.5t71 159.5q0 47 -15 82.5t-48 64.5t-74 50.5t-105 47.5l-94 37q-170 67 -262 161.5t-92 240.5q0 173 124.5 278t309.5 105q89 0 166 -25.5t132.5 -69.5t94 -97t62.5 -114l-175 -94q-92 191 -272 191 q-93 0 -153 -47t-60 -129q0 -69 49 -121.5t168 -100.5l99 -39q197 -78 291 -174t94 -249q0 -102 -41.5 -185t-110.5 -134.5t-155 -79t-179 -27.5q-186 0 -324 99.5t-176 258.5z" />
<glyph unicode="T" horiz-adv-x="1085" d="M61 1239v215h965v-215h-367v-1239h-231v1239h-367z" />
<glyph unicode="U" horiz-adv-x="1296" d="M113 532v922h231v-922q0 -88 25 -154.5t68.5 -104t96 -56t113.5 -18.5q62 0 115 18.5t96.5 56t68.5 104t25 154.5v922h232v-922q0 -131 -41.5 -236.5t-114.5 -174t-170 -105t-211 -36.5q-113 0 -210 36.5t-169 105t-113.5 174t-41.5 236.5z" />
<glyph unicode="V" horiz-adv-x="1458" d="M41 1454h250l438 -1161l438 1161h250l-569 -1454h-240z" />
<glyph unicode="W" horiz-adv-x="2066" d="M51 1454h244l309 -1051l338 1051h184l336 -1051l312 1051h243l-446 -1454h-187l-350 1059l-352 -1059h-184z" />
<glyph unicode="X" horiz-adv-x="1355" d="M41 0l502 741l-484 713h273l346 -512l348 512h270l-483 -713l504 -741h-273l-366 541l-367 -541h-270z" />
<glyph unicode="Y" horiz-adv-x="1378" d="M51 1454h262l375 -633l377 633h262l-522 -850v-604h-232v604z" />
<glyph unicode="Z" horiz-adv-x="1200" d="M41 0l745 1239h-710v215h1073l-746 -1239h727v-215h-1089z" />
<glyph unicode="[" horiz-adv-x="579" d="M92 -266v1792h395v-199h-163v-1395h163v-198h-395z" />
<glyph unicode="\" horiz-adv-x="993" d="M59 1536h238l594 -1536h-238z" />
<glyph unicode="]" horiz-adv-x="579" d="M92 -68h164v1395h-164v199h395v-1792h-395v198z" />
<glyph unicode="^" horiz-adv-x="1003" d="M92 973l342 461h135l342 -461h-206l-201 274l-205 -274h-207z" />
<glyph unicode="_" horiz-adv-x="1208" d="M92 0h1024v-201h-1024v201z" />
<glyph unicode="`" horiz-adv-x="415" d="M20 1516h187l188 -320h-182z" />
<glyph unicode="a" d="M61 532q0 132 45 240t119.5 175t165 102.5t187.5 35.5q135 0 234.5 -59t133.5 -131h6v170h226v-1065h-226v170h-6q-34 -72 -133.5 -131t-234.5 -59q-97 0 -187.5 35.5t-165 102t-119.5 174.5t-45 240zM285 532q0 -110 49.5 -191t124 -119t162.5 -38q138 0 237.5 92.5 t99.5 255.5t-99.5 256t-237.5 93q-88 0 -163 -38.5t-124 -119.5t-49 -191z" />
<glyph unicode="b" d="M113 0v1454h225v-559h6q34 72 134 131t235 59q97 0 187.5 -35.5t164.5 -102.5t119 -175t45 -240t-45 -240t-119 -174.5t-164.5 -102t-187.5 -35.5q-135 0 -235 59t-134 131h-6v-170h-225zM332 532q0 -163 100 -255.5t238 -92.5q88 0 162.5 38t124 119t49.5 191t-49 191 t-124 119.5t-163 38.5q-138 0 -238 -93t-100 -256z" />
<glyph unicode="c" horiz-adv-x="1134" d="M61 532q0 104 31 194.5t84.5 155.5t124.5 111.5t152 69t165 22.5q143 0 264 -67t193 -195l-168 -104q-46 75 -121 117.5t-165 42.5q-136 0 -236 -95t-100 -252t100 -251.5t236 -94.5q90 0 165 42.5t121 117.5l168 -104q-72 -127 -193.5 -194.5t-263.5 -67.5 q-106 0 -205 36.5t-178 104.5t-126.5 174.5t-47.5 236.5z" />
<glyph unicode="d" d="M61 532q0 132 45 240t119.5 175t165 102.5t187.5 35.5q135 0 234.5 -59t133.5 -131h6v559h226v-1454h-226v170h-6q-34 -72 -133.5 -131t-234.5 -59q-97 0 -187.5 35.5t-165 102t-119.5 174.5t-45 240zM285 532q0 -110 49.5 -191t124 -119t162.5 -38q138 0 237.5 92.5 t99.5 255.5t-99.5 256t-237.5 93q-88 0 -163 -38.5t-124 -119.5t-49 -191z" />
<glyph unicode="e" horiz-adv-x="1177" d="M61 532q0 130 45.5 237t121 174.5t170.5 104.5t198 37q83 0 162 -23t150 -74t121 -124t73 -181q14 -65 14 -138q0 -48 -6 -99h-836q26 -134 124 -206t239 -72q178 0 295 111l106 -111q-70 -88 -181.5 -138t-244.5 -50q-109 0 -208 37t-175.5 105.5t-122 174.5t-45.5 235z M272 614h637q-9 131 -99 205t-212 74q-119 0 -210.5 -72t-115.5 -207z" />
<glyph unicode="f" horiz-adv-x="761" d="M41 883v182h129v92q0 82 22 145t55.5 99t80 58.5t88 30t86.5 7.5q111 0 178 -41v-178q-55 27 -123 27q-160 0 -160 -175v-65h283v-182h-283v-883h-227v883h-129z" />
<glyph unicode="g" d="M61 532q0 132 45.5 240t120 175t165 102.5t186.5 35.5q134 0 232 -59t130 -131h12v170h226v-993q0 -113 -34 -202t-88.5 -143.5t-128.5 -90t-147 -49t-151 -13.5q-97 0 -182.5 20t-129.5 50v186q40 -27 114.5 -46.5t158.5 -19.5q163 0 262.5 75t99.5 220v111h-12 q-32 -72 -130 -131t-232 -59q-96 0 -186.5 35.5t-165 102t-120 174.5t-45.5 240zM285 532q0 -110 49.5 -191t124 -119t162.5 -38q138 0 237.5 92.5t99.5 255.5t-99.5 256t-237.5 93q-88 0 -163 -38.5t-124 -119.5t-49 -191z" />
<glyph unicode="h" horiz-adv-x="1200" d="M113 0v1454h225v-549q46 80 133 130t209 50q84 0 156 -27t129 -80.5t89.5 -143.5t32.5 -207v-627h-227v590q0 138 -70 214.5t-190 76.5q-118 0 -190 -77t-72 -214v-590h-225z" />
<glyph unicode="i" horiz-adv-x="450" d="M113 0v1065h225v-1065h-225zM113 1251v203h225v-203h-225z" />
<glyph unicode="j" horiz-adv-x="454" d="M-184 -184h53q62 0 104.5 10.5t76.5 37.5t50.5 78t16.5 128v995h227v-1018q0 -238 -114.5 -340t-350.5 -102h-63v211zM117 1251v203h227v-203h-227z" />
<glyph unicode="k" horiz-adv-x="1150" d="M113 0v1454h225v-893l453 504h274l-436 -477l483 -588h-258l-367 432l-149 -162v-270h-225z" />
<glyph unicode="l" horiz-adv-x="450" d="M113 0v1454h225v-1454h-225z" />
<glyph unicode="m" horiz-adv-x="1830" d="M113 0v1065h225v-152q101 172 315 172q108 0 192 -48.5t132 -145.5q47 85 137.5 139.5t218.5 54.5q176 0 281.5 -115t105.5 -347v-623h-227v610q0 129 -59.5 200t-165.5 71q-110 0 -174 -71.5t-64 -199.5v-610h-227v610q0 129 -59.5 200t-165.5 71q-110 0 -175 -71.5 t-65 -199.5v-610h-225z" />
<glyph unicode="n" horiz-adv-x="1200" d="M113 0v1065h225v-160q46 80 133 130t209 50q84 0 156 -27t129 -80.5t89.5 -143.5t32.5 -207v-627h-227v590q0 138 -70 214.5t-190 76.5q-118 0 -190 -77t-72 -214v-590h-225z" />
<glyph unicode="o" horiz-adv-x="1236" d="M61 532q0 129 48 236.5t127.5 175t178 104.5t203.5 37q84 0 164 -22.5t151.5 -69t125.5 -111.5t85.5 -155.5t31.5 -194.5q0 -129 -48 -236t-127.5 -175t-178.5 -104.5t-204 -36.5t-203.5 36.5t-178 104.5t-127.5 175t-48 236zM285 532q0 -158 98 -252t235 -94t234.5 94 t97.5 252t-97.5 252.5t-234.5 94.5t-235 -94.5t-98 -252.5z" />
<glyph unicode="p" d="M113 -389v1454h225v-170h6q34 72 134 131t235 59q97 0 187.5 -35.5t164.5 -102.5t119 -175t45 -240t-45 -240t-119 -174.5t-164.5 -102t-187.5 -35.5q-135 0 -235 59t-134 131h-6v-559h-225zM332 532q0 -163 100 -255.5t238 -92.5q88 0 162.5 38t124 119t49.5 191 t-49 191t-124 119.5t-163 38.5q-138 0 -238 -93t-100 -256z" />
<glyph unicode="q" d="M61 532q0 132 45 240t119.5 175t165 102.5t187.5 35.5q135 0 234.5 -59t133.5 -131h6v170h226v-1454h-226v559h-6q-34 -72 -133.5 -131t-234.5 -59q-97 0 -187.5 35.5t-165 102t-119.5 174.5t-45 240zM285 532q0 -110 49.5 -191t124 -119t162.5 -38q138 0 237.5 92.5 t99.5 255.5t-99.5 256t-237.5 93q-88 0 -163 -38.5t-124 -119.5t-49 -191z" />
<glyph unicode="r" horiz-adv-x="802" d="M113 0v1065h225v-274q30 130 115 212t223 82q36 0 67 -8v-215q-35 6 -65 6q-153 0 -246.5 -101.5t-93.5 -268.5v-498h-225z" />
<glyph unicode="s" horiz-adv-x="888" d="M51 272l185 52q18 -72 69.5 -117t130.5 -45q69 0 117.5 35.5t48.5 101.5q0 50 -34.5 84.5t-112.5 65.5l-115 43q-250 97 -250 301q0 132 100.5 212t249.5 80q136 0 230.5 -69t122.5 -187l-179 -47q-44 123 -163 123q-62 0 -101 -31t-39 -83q0 -90 131 -138l105 -41 q62 -23 107 -47.5t87 -60.5t64 -88t22 -117q0 -103 -54.5 -176.5t-141 -108t-193.5 -34.5q-156 0 -259.5 76.5t-127.5 215.5z" />
<glyph unicode="t" horiz-adv-x="722" d="M61 883v182h148v272h227v-272h215v-182h-215v-584q0 -49 28.5 -79t88.5 -30q45 0 98 19v-178q-51 -43 -166 -43q-128 0 -202 66.5t-74 203.5v625h-148z" />
<glyph unicode="u" horiz-adv-x="1200" d="M113 438v627h227v-590q0 -138 70 -214.5t190 -76.5q118 0 190 77t72 214v590h225v-1065h-225v160q-46 -80 -133 -130t-209 -50q-84 0 -156 27t-129 80.5t-89.5 143.5t-32.5 207z" />
<glyph unicode="v" horiz-adv-x="1191" d="M41 1065h231l324 -793l322 793h233l-451 -1065h-211z" />
<glyph unicode="w" horiz-adv-x="1884" d="M41 1065h225l279 -791l293 791h209l292 -791l277 791h227l-395 -1065h-209l-297 788l-297 -788h-209z" />
<glyph unicode="x" horiz-adv-x="1138" d="M29 0l409 545l-377 520h258l250 -354l250 354h258l-377 -520l410 -545h-264l-277 379l-276 -379h-264z" />
<glyph unicode="y" horiz-adv-x="1191" d="M41 1065h231l324 -793l322 793h233l-451 -1065l-168 -389h-223l176 397z" />
<glyph unicode="z" horiz-adv-x="1067" d="M41 0l618 866h-559v199h926l-618 -864h583v-201h-950z" />
<glyph unicode="{" horiz-adv-x="651" d="M92 627l92 149v545q0 57 19 99t50 64t64.5 32t69.5 10h172v-199h-72q-33 0 -52 -16.5t-19 -48.5v-496l-103 -139l103 -135v-494q0 -32 19 -49t52 -17h72v-198h-172q-37 0 -70.5 10t-64.5 32t-49.5 64t-18.5 99v542z" />
<glyph unicode="|" horiz-adv-x="485" d="M143 -184v1638h199v-1638h-199z" />
<glyph unicode="}" horiz-adv-x="651" d="M92 -68h72q33 0 52.5 17t19.5 49v494l102 135l-102 139v496q0 32 -19.5 48.5t-52.5 16.5h-72v199h172q36 0 69.5 -10t64.5 -32t50 -64t19 -99v-545l92 -149l-92 -146v-542q0 -57 -18.5 -99t-49.5 -64t-64.5 -32t-70.5 -10h-172v198z" />
<glyph unicode="~" horiz-adv-x="927" d="M92 489q0 108 57.5 173t157.5 65q45 0 81 -12.5t58.5 -29.5t42 -34.5t43 -30t50.5 -12.5q35 0 58.5 19t23.5 53h172q0 -108 -57.5 -173t-157.5 -65q-45 0 -81 12.5t-58.5 30t-42 34.5t-43 29.5t-50.5 12.5q-35 0 -58.5 -19t-23.5 -53h-172z" />
<glyph unicode="&#xa1;" horiz-adv-x="471" d="M113 952q0 58 38 95.5t93 37.5q56 0 94.5 -37.5t38.5 -95.5t-38.5 -94.5t-94.5 -36.5q-55 0 -93 37t-38 94zM127 -389v1020h233v-1020h-233z" />
<glyph unicode="&#xa2;" horiz-adv-x="1134" d="M61 676q0 118 41 216t110.5 164t157 106t185.5 50v222h117v-220q127 -11 232.5 -75.5t170.5 -177.5l-168 -103q-84 130 -235 152v-670q72 10 133.5 51t101.5 103l168 -103q-65 -113 -170 -178.5t-233 -77.5v-217h-117v219q-98 10 -185.5 50.5t-157 106.5t-110.5 165 t-41 217zM285 676q0 -135 77.5 -224t192.5 -110v666q-115 -21 -192.5 -109t-77.5 -223z" />
<glyph unicode="&#xa3;" horiz-adv-x="1157" d="M82 0v188q102 90 156.5 167t54.5 171q0 17 -4 45h-207v170h143l-14 28l-15 30t-13.5 28.5t-14 31t-12 30t-11.5 33.5t-8.5 32t-7.5 35.5t-4 35t-2 38.5q0 185 134.5 298.5t342.5 113.5q214 0 345.5 -119.5t131.5 -329.5v-37h-219v35q0 66 -26.5 121.5t-87 93t-146.5 37.5 q-121 0 -187.5 -70t-66.5 -174q0 -37 11.5 -80t21 -66t36.5 -77.5t33 -67.5h334v-170h-276q4 -32 4 -53q0 -176 -154 -330h705v-188h-977z" />
<glyph unicode="&#xa4;" horiz-adv-x="1169" d="M92 659l88 89q-57 105 -57 227q0 125 61 231l-92 92l148 146l86 -86q112 76 256 76t262 -78l88 88l147 -146l-96 -96q57 -105 57 -227q0 -117 -55 -221l94 -95l-147 -145l-84 84q-119 -82 -266 -82q-145 0 -263 78l-79 -80zM313 975q0 -105 73.5 -186.5t195.5 -81.5 q123 0 196.5 81.5t73.5 186.5t-73.5 186.5t-196.5 81.5q-122 0 -195.5 -81.5t-73.5 -186.5z" />
<glyph unicode="&#xa5;" horiz-adv-x="1378" d="M51 1454h262l375 -633l377 633h262l-522 -850v-24h297v-123h-297v-76h297v-123h-297v-258h-232v258h-276v123h276v76h-276v123h276v24z" />
<glyph unicode="&#xa6;" horiz-adv-x="485" d="M143 -184v573h199v-573h-199zM143 881v573h199v-573h-199z" />
<glyph unicode="&#xa7;" horiz-adv-x="899" d="M61 -43v233h168v-131q14 -26 68.5 -54t128.5 -28q101 0 161 43.5t60 116.5t-42.5 112.5t-133.5 74.5l-123 43q-136 49 -208 125.5t-72 195.5q0 138 100 219q-100 87 -100 223q0 143 103.5 224.5t266.5 81.5q116 0 220.5 -45.5t127.5 -90.5v-233h-165v131q-13 24 -65.5 49 t-117.5 25q-86 0 -138 -40t-52 -108q0 -111 153 -163l131 -48q74 -28 127 -57.5t96 -69t64 -91.5t21 -117q0 -139 -95 -224q95 -89 95 -219q0 -156 -114.5 -238.5t-301.5 -82.5q-125 0 -226 45.5t-137 97.5zM248 682q0 -112 153 -164l131 -47l43 -16q72 43 72 125 q0 73 -42.5 112t-133.5 74l-123 43l-8 2q-92 -37 -92 -129z" />
<glyph unicode="&#xa8;" horiz-adv-x="727" d="M20 1251v226h213v-226h-213zM494 1251v226h213v-226h-213z" />
<glyph unicode="&#xa9;" horiz-adv-x="1636" d="M92 727q0 163 60 303.5t160.5 235t232 148.5t274.5 54q142 0 273.5 -54t232 -148.5t161 -235t60.5 -303.5t-60.5 -303.5t-161 -235t-232 -148.5t-273.5 -54q-143 0 -274.5 54t-232 148.5t-160.5 235t-60 303.5zM293 727q0 -162 73 -287.5t192 -190.5t261 -65 q105 0 200 38.5t167 107.5t114.5 172t42.5 225t-42.5 225t-114.5 172t-167 107.5t-200 38.5q-142 0 -261 -65t-192 -190.5t-73 -287.5zM434 727q0 183 114 297.5t283 114.5q83 0 153.5 -31t117.5 -86l-113 -131q-59 59 -145 59q-90 0 -151.5 -63t-61.5 -160t61.5 -160 t151.5 -63q87 0 145 61l113 -133q-47 -55 -117.5 -86t-153.5 -31q-169 0 -283 114.5t-114 297.5z" />
<glyph unicode="&#xaa;" horiz-adv-x="813" d="M61 981q0 99 70 149t186 58l181 14q0 58 -40 89.5t-104 31.5q-105 0 -178 -76l-84 92q38 50 108.5 84.5t166.5 34.5q144 0 220.5 -80t76.5 -235v-197q0 -60 7.5 -90.5t28.5 -77.5h-143q-22 17 -35 86q-73 -92 -219 -92q-109 0 -175.5 55.5t-66.5 153.5zM219 983 q0 -35 27 -58.5t76 -23.5q67 0 112 37t64 82v63l-183 -16q-50 -4 -73 -27.5t-23 -56.5z" />
<glyph unicode="&#xab;" horiz-adv-x="854" d="M82 541v96l303 303l74 -78l-221 -272l221 -275l-74 -77zM426 541v96l303 303l74 -78l-221 -272l221 -275l-74 -77z" />
<glyph unicode="&#xac;" horiz-adv-x="1040" d="M92 430v188h856v-401h-215v213h-641z" />
<glyph unicode="&#xad;" horiz-adv-x="819" d="M92 473v189h635v-189h-635z" />
<glyph unicode="&#xae;" horiz-adv-x="1636" d="M92 727q0 167 60 309.5t160.5 238.5t232 150t274.5 54q142 0 273.5 -54t232 -150t161 -238.5t60.5 -309.5q0 -163 -60.5 -303.5t-161 -235t-232 -148.5t-273.5 -54q-143 0 -274.5 54t-232 148.5t-160.5 235t-60 303.5zM293 727q0 -162 73 -287.5t192 -190.5t261 -65 q105 0 200 38.5t167 107.5t114.5 172t42.5 225q0 167 -73 294.5t-191 193t-260 65.5q-143 0 -261.5 -65.5t-191.5 -193t-73 -294.5zM567 369v735h281q123 0 187.5 -67t64.5 -181q0 -84 -37.5 -139t-116.5 -92l184 -256h-157l-170 249h-90v-249h-146zM709 748h118 q61 0 93 23.5t32 84.5q0 119 -125 119h-118v-227z" />
<glyph unicode="&#xaf;" horiz-adv-x="800" d="M20 1251v174h760v-174h-760z" />
<glyph unicode="&#xb0;" horiz-adv-x="772" d="M82 1176q0 126 89.5 212.5t215.5 86.5t215.5 -86.5t89.5 -212.5q0 -127 -90 -215.5t-215 -88.5t-215 88.5t-90 215.5zM252 1176q0 -55 36 -95.5t99 -40.5q61 0 97 40.5t36 95.5q0 54 -35.5 92.5t-97.5 38.5q-63 0 -99 -38.5t-36 -92.5z" />
<glyph unicode="&#xb1;" horiz-adv-x="935" d="M92 604v189h281v280h188v-280h283v-189h-283v-280h-188v280h-281zM123 4v189h688v-189h-688z" />
<glyph unicode="&#xb2;" horiz-adv-x="512" d="M72 1247v29q0 72 50.5 119t121.5 47q70 0 121 -46.5t51 -107.5q0 -54 -29.5 -96t-110.5 -125l-96 -100h242v-66h-344v66l139 141q58 60 75 79t31.5 46t14.5 55q0 38 -28.5 64t-65.5 26q-39 0 -68 -26.5t-29 -75.5v-29h-75z" />
<glyph unicode="&#xb3;" horiz-adv-x="536" d="M82 1079h78q-9 -47 24 -84t84 -37q46 0 78.5 28t32.5 71q0 56 -41 78.5t-111 13.5v63q129 6 129 88q0 31 -26 53.5t-62 22.5q-44 0 -71 -31t-23 -85h-78q-6 77 45 128.5t127 51.5q65 0 114.5 -42.5t49.5 -97.5q0 -65 -61 -108q38 -16 62 -50.5t24 -84.5 q0 -69 -56.5 -116.5t-132.5 -47.5q-85 0 -138.5 55.5t-47.5 130.5z" />
<glyph unicode="&#xb4;" horiz-adv-x="372" d="M20 1196l197 320h189l-203 -320h-183z" />
<glyph unicode="&#xb5;" horiz-adv-x="1200" d="M113 -389v1454h227v-590q0 -138 70 -214.5t190 -76.5q118 0 190 77t72 214v590h225v-1065h-225v160q-46 -80 -133 -130t-209 -50q-103 0 -182 36v-405h-225z" />
<glyph unicode="&#xb6;" horiz-adv-x="1603" d="M92 969q0 218 138.5 351.5t371.5 133.5h496v-1454h-232v485h-264q-233 0 -371.5 133.5t-138.5 350.5zM328 969q0 -135 79 -202t218 -67h241v539h-241q-139 0 -218 -67.5t-79 -202.5zM1260 0v1454h231v-1454h-231z" />
<glyph unicode="&#xb7;" horiz-adv-x="448" d="M92 559q0 57 38 94t93 37q56 0 94.5 -36.5t38.5 -94.5t-38.5 -95.5t-94.5 -37.5q-55 0 -93 37.5t-38 95.5z" />
<glyph unicode="&#xb8;" horiz-adv-x="413" d="M20 -127l78 127h168l-57 -82q82 -1 133 -50.5t51 -123.5q0 -56 -31.5 -100t-82.5 -66.5t-115 -30t-129 8.5v79q190 -7 190 93q0 48 -43 74.5t-133 15.5z" />
<glyph unicode="&#xb9;" horiz-adv-x="413" d="M113 1395l71 41h76v-535h-76v453l-34 -23z" />
<glyph unicode="&#xba;" horiz-adv-x="770" d="M61 1112q0 76 29.5 140.5t76.5 105.5t104.5 63.5t115.5 22.5q57 0 114 -22.5t104 -63.5t76.5 -105.5t29.5 -140.5q0 -77 -29.5 -141.5t-76.5 -105.5t-104 -64t-114 -23q-79 0 -152 38t-123.5 116.5t-50.5 179.5zM215 1112q0 -82 51.5 -131t120.5 -49q66 0 117 49t51 131 q0 80 -51 128t-117 48q-69 0 -120.5 -47.5t-51.5 -128.5z" />
<glyph unicode="&#xbb;" horiz-adv-x="854" d="M51 315l221 275l-221 272l74 78l303 -303v-96l-303 -303zM395 315l221 275l-221 272l74 78l303 -303v-96l-303 -303z" />
<glyph unicode="&#xbc;" horiz-adv-x="1165" d="M51 0l893 1434h86l-880 -1434h-99zM57 1395l72 41h76v-535h-76v453l-35 -23zM713 156l270 379h76v-316h55v-63h-55v-156h-76v156h-270zM850 219h133v195z" />
<glyph unicode="&#xbd;" horiz-adv-x="1114" d="M51 0l893 1434h86l-880 -1434h-99zM57 1395l72 41h76v-535h-76v453l-35 -23zM713 346v29q0 72 50.5 119t121.5 47q70 0 121 -46.5t51 -107.5q0 -54 -29.5 -96.5t-109.5 -124.5l-97 -100h242v-66h-344v66l139 141q58 60 75 79t31.5 46t14.5 55q0 38 -28.5 64t-65.5 26 q-39 0 -68 -26.5t-29 -75.5v-29h-75z" />
<glyph unicode="&#xbe;" horiz-adv-x="1202" d="M51 1079h78q-9 -47 24.5 -84t84.5 -37q45 0 77.5 28t32.5 71q0 57 -40.5 79t-110.5 13v63q129 6 129 88q0 31 -26 53.5t-62 22.5q-45 0 -72 -31t-23 -85h-77q-6 77 45 128.5t127 51.5q65 0 114 -42.5t49 -97.5q0 -65 -61 -108q38 -16 62 -50.5t24 -84.5q0 -69 -56 -116.5 t-132 -47.5q-85 0 -139 55.5t-48 130.5zM109 0l892 1434h86l-880 -1434h-98zM750 156l270 379h76v-316h55v-63h-55v-156h-76v156h-270zM887 219h133v195z" />
<glyph unicode="&#xbf;" horiz-adv-x="1048" d="M59 -16q0 70 19.5 128t51 97.5t69.5 73.5t76.5 64t70 61.5t51 74t19.5 92.5l2 64h231v-61q0 -70 -20 -127t-52 -95.5t-70 -71.5t-76 -61.5t-69.5 -58t-51 -69t-19.5 -87.5q0 -86 58.5 -151.5t166.5 -65.5q116 0 180 73t64 179v29h225v-29q0 -217 -126 -335t-345 -118 q-212 0 -333.5 108t-121.5 286zM401 952q0 58 39 95.5t95 37.5q55 0 93 -37.5t38 -95.5q0 -57 -38 -94t-93 -37q-57 0 -95.5 36.5t-38.5 94.5z" />
<glyph unicode="&#xc0;" horiz-adv-x="1437" d="M31 0l567 1454h240l569 -1454h-250l-113 297h-651l-112 -297h-250zM434 1905h187l188 -320h-182zM473 512h492l-246 649z" />
<glyph unicode="&#xc1;" horiz-adv-x="1437" d="M31 0l567 1454h240l569 -1454h-250l-113 297h-651l-112 -297h-250zM473 512h492l-246 649zM635 1585l196 320h189l-203 -320h-182z" />
<glyph unicode="&#xc2;" horiz-adv-x="1437" d="M31 0l567 1454h240l569 -1454h-250l-113 297h-651l-112 -297h-250zM440 1651l199 254h160l200 -254l-116 -101l-164 211l-164 -211zM473 512h492l-246 649z" />
<glyph unicode="&#xc3;" horiz-adv-x="1437" d="M31 0l567 1454h240l569 -1454h-250l-113 297h-651l-112 -297h-250zM389 1634q0 110 56.5 170t138.5 60q35 0 65 -11.5t51 -28t40 -33.5t39.5 -28.5t41.5 -11.5q29 0 49.5 20t20.5 54h160q0 -110 -57.5 -170t-139.5 -60q-42 0 -78.5 17.5t-58 39t-48.5 39t-51 17.5 q-29 0 -49 -20t-20 -54h-160zM473 512h492l-246 649z" />
<glyph unicode="&#xc4;" horiz-adv-x="1437" d="M31 0l567 1454h240l569 -1454h-250l-113 297h-651l-112 -297h-250zM377 1640v226h213v-226h-213zM473 512h492l-246 649zM850 1640v226h213v-226h-213z" />
<glyph unicode="&#xc5;" horiz-adv-x="1437" d="M31 0l567 1454h240l569 -1454h-250l-113 297h-651l-112 -297h-250zM473 512h492l-246 649zM508 1800q0 89 61 150t152 61q86 0 146.5 -61.5t60.5 -149.5q0 -86 -60.5 -147.5t-146.5 -61.5q-91 0 -152 61t-61 148zM655 1800q0 -27 17.5 -45t44.5 -18q28 0 46.5 18.5 t18.5 44.5q0 28 -18.5 47t-46.5 19q-27 0 -44.5 -19t-17.5 -47z" />
<glyph unicode="&#xc6;" horiz-adv-x="1914" d="M29 0l983 1454h805v-215h-572v-403h484v-209h-484v-412h590v-215h-821v348h-492l-233 -348h-260zM657 547h357v530z" />
<glyph unicode="&#xc7;" horiz-adv-x="1486" d="M92 727q0 165 59.5 306t160.5 237t237.5 150.5t288.5 54.5q76 0 149 -14t151 -46.5t150 -94t127 -146.5l-168 -119q-75 103 -181 150.5t-222 47.5q-106 0 -200.5 -38t-163.5 -105t-109.5 -166.5t-40.5 -216.5q0 -157 69.5 -278t186.5 -184.5t260 -63.5q258 0 401 198 l168 -118q-96 -150 -235 -220t-291 -79l-45 -64q82 -1 133 -50.5t51 -123.5q0 -56 -31.5 -100t-82.5 -66.5t-115 -30t-129 8.5v79q190 -7 190 93q0 48 -43 74.5t-133 15.5l-29 55l70 115q-133 18 -248.5 79t-201 155t-134.5 224.5t-49 280.5z" />
<glyph unicode="&#xc8;" horiz-adv-x="1013" d="M113 0v1454h802v-215h-571v-403h483v-209h-483v-412h590v-215h-821zM248 1905h186l189 -320h-183z" />
<glyph unicode="&#xc9;" horiz-adv-x="1013" d="M113 0v1454h802v-215h-571v-403h483v-209h-483v-412h590v-215h-821zM446 1585l197 320h188l-202 -320h-183z" />
<glyph unicode="&#xca;" horiz-adv-x="1013" d="M113 0v1454h802v-215h-571v-403h483v-209h-483v-412h590v-215h-821zM252 1651l199 254h159l201 -254l-117 -101l-164 211l-163 -211z" />
<glyph unicode="&#xcb;" horiz-adv-x="1013" d="M113 0v1454h802v-215h-571v-403h483v-209h-483v-412h590v-215h-821zM188 1640v226h213v-226h-213zM662 1640v226h212v-226h-212z" />
<glyph unicode="&#xcc;" horiz-adv-x="454" d="M-55 1905h186l188 -320h-182zM113 0v1454h231v-1454h-231z" />
<glyph unicode="&#xcd;" horiz-adv-x="454" d="M113 0v1454h231v-1454h-231zM143 1585l197 320h188l-202 -320h-183z" />
<glyph unicode="&#xce;" horiz-adv-x="454" d="M-51 1651l198 254h160l201 -254l-117 -101l-164 211l-164 -211zM113 0v1454h231v-1454h-231z" />
<glyph unicode="&#xcf;" horiz-adv-x="454" d="M-115 1640v226h213v-226h-213zM113 0v1454h231v-1454h-231zM358 1640v226h213v-226h-213z" />
<glyph unicode="&#xd0;" horiz-adv-x="1488" d="M117 612v189h108v653h484q153 0 285 -53.5t225 -148.5t145.5 -230.5t52.5 -294.5t-52.5 -294.5t-145.5 -230.5t-225 -148.5t-285 -53.5h-484v612h-108zM457 219h243q227 0 352.5 138t125.5 370t-125.5 370t-352.5 138h-243v-434h295v-189h-295v-393z" />
<glyph unicode="&#xd1;" horiz-adv-x="1435" d="M113 0v1454h231l737 -1071h11v1071h231v-1454h-233l-736 1071h-10v-1071h-231zM387 1634q0 110 56.5 170t138.5 60q35 0 65 -11.5t51 -28t40 -33.5t39.5 -28.5t41.5 -11.5q29 0 49.5 20t20.5 54h160q0 -110 -57.5 -170t-139.5 -60q-42 0 -78.5 17.5t-58 39t-48.5 39 t-51 17.5q-29 0 -49 -20t-20 -54h-160z" />
<glyph unicode="&#xd2;" horiz-adv-x="1671" d="M92 727q0 163 60 304.5t161.5 237.5t237 151t285.5 55q149 0 284.5 -55t237 -151t161.5 -237.5t60 -304.5t-60 -304t-161.5 -237.5t-237 -151t-284.5 -54.5q-150 0 -285.5 54.5t-237 151t-161.5 237.5t-60 304zM330 727q0 -155 70.5 -276.5t185 -185.5t250.5 -64 t250.5 64t184.5 185.5t70 276.5t-70 276.5t-184.5 185.5t-250.5 64t-250.5 -64t-185 -185.5t-70.5 -276.5zM549 1905h186l189 -320h-183z" />
<glyph unicode="&#xd3;" horiz-adv-x="1671" d="M92 727q0 163 60 304.5t161.5 237.5t237 151t285.5 55q149 0 284.5 -55t237 -151t161.5 -237.5t60 -304.5t-60 -304t-161.5 -237.5t-237 -151t-284.5 -54.5q-150 0 -285.5 54.5t-237 151t-161.5 237.5t-60 304zM330 727q0 -155 70.5 -276.5t185 -185.5t250.5 -64 t250.5 64t184.5 185.5t70 276.5t-70 276.5t-184.5 185.5t-250.5 64t-250.5 -64t-185 -185.5t-70.5 -276.5zM750 1585l196 320h189l-203 -320h-182z" />
<glyph unicode="&#xd4;" horiz-adv-x="1671" d="M92 727q0 163 60 304.5t161.5 237.5t237 151t285.5 55q149 0 284.5 -55t237 -151t161.5 -237.5t60 -304.5t-60 -304t-161.5 -237.5t-237 -151t-284.5 -54.5q-150 0 -285.5 54.5t-237 151t-161.5 237.5t-60 304zM330 727q0 -155 70.5 -276.5t185 -185.5t250.5 -64 t250.5 64t184.5 185.5t70 276.5t-70 276.5t-184.5 185.5t-250.5 64t-250.5 -64t-185 -185.5t-70.5 -276.5zM555 1651l199 254h159l201 -254l-117 -101l-163 211l-164 -211z" />
<glyph unicode="&#xd5;" horiz-adv-x="1671" d="M92 727q0 163 60 304.5t161.5 237.5t237 151t285.5 55q149 0 284.5 -55t237 -151t161.5 -237.5t60 -304.5t-60 -304t-161.5 -237.5t-237 -151t-284.5 -54.5q-150 0 -285.5 54.5t-237 151t-161.5 237.5t-60 304zM330 727q0 -155 70.5 -276.5t185 -185.5t250.5 -64 t250.5 64t184.5 185.5t70 276.5t-70 276.5t-184.5 185.5t-250.5 64t-250.5 -64t-185 -185.5t-70.5 -276.5zM504 1634q0 110 56 170t138 60q42 0 79 -17.5t58.5 -39t48.5 -39t52 -17.5q29 0 49.5 20t20.5 54h159q0 -110 -57 -170t-139 -60q-42 0 -78.5 17.5t-58 39t-48.5 39 t-51 17.5q-29 0 -49 -20t-20 -54h-160z" />
<glyph unicode="&#xd6;" horiz-adv-x="1671" d="M92 727q0 163 60 304.5t161.5 237.5t237 151t285.5 55q149 0 284.5 -55t237 -151t161.5 -237.5t60 -304.5t-60 -304t-161.5 -237.5t-237 -151t-284.5 -54.5q-150 0 -285.5 54.5t-237 151t-161.5 237.5t-60 304zM330 727q0 -155 70.5 -276.5t185 -185.5t250.5 -64 t250.5 64t184.5 185.5t70 276.5t-70 276.5t-184.5 185.5t-250.5 64t-250.5 -64t-185 -185.5t-70.5 -276.5zM492 1640v226h213v-226h-213zM965 1640v226h213v-226h-213z" />
<glyph unicode="&#xd7;" horiz-adv-x="849" d="M94 356l199 199l-199 199l133 133l199 -199l197 199l133 -133l-197 -199l199 -199l-133 -133l-199 199l-199 -199z" />
<glyph unicode="&#xd8;" horiz-adv-x="1671" d="M92 727q0 163 60 304.5t161.5 237.5t237 151t285.5 55q118 0 221 -33l39 84h258l-88 -183q146 -101 229.5 -260t83.5 -356q0 -163 -60 -304t-161.5 -237.5t-237 -151t-284.5 -54.5q-106 0 -209 28l-54 -110h-256l99 206q-150 98 -237 260t-87 363zM330 727 q0 -130 49.5 -236.5t136.5 -177.5l442 926q-55 14 -122 14q-136 0 -250.5 -64t-185 -185.5t-70.5 -276.5zM725 213q53 -12 111 -12q136 0 250.5 64t184.5 185.5t70 276.5q0 127 -47 231t-129 175z" />
<glyph unicode="&#xd9;" horiz-adv-x="1296" d="M113 532v922h231v-922q0 -88 25 -154.5t68.5 -104t96 -56t113.5 -18.5q62 0 115 18.5t96.5 56t68.5 104t25 154.5v922h232v-922q0 -131 -41.5 -236.5t-114.5 -174t-170 -105t-211 -36.5q-113 0 -210 36.5t-169 105t-113.5 174t-41.5 236.5zM365 1905h186l188 -320h-182z " />
<glyph unicode="&#xda;" horiz-adv-x="1296" d="M113 532v922h231v-922q0 -88 25 -154.5t68.5 -104t96 -56t113.5 -18.5q62 0 115 18.5t96.5 56t68.5 104t25 154.5v922h232v-922q0 -131 -41.5 -236.5t-114.5 -174t-170 -105t-211 -36.5q-113 0 -210 36.5t-169 105t-113.5 174t-41.5 236.5zM563 1585l197 320h188 l-203 -320h-182z" />
<glyph unicode="&#xdb;" horiz-adv-x="1296" d="M113 532v922h231v-922q0 -88 25 -154.5t68.5 -104t96 -56t113.5 -18.5q62 0 115 18.5t96.5 56t68.5 104t25 154.5v922h232v-922q0 -131 -41.5 -236.5t-114.5 -174t-170 -105t-211 -36.5q-113 0 -210 36.5t-169 105t-113.5 174t-41.5 236.5zM369 1651l198 254h160 l201 -254l-117 -101l-164 211l-164 -211z" />
<glyph unicode="&#xdc;" horiz-adv-x="1296" d="M113 532v922h231v-922q0 -88 25 -154.5t68.5 -104t96 -56t113.5 -18.5q62 0 115 18.5t96.5 56t68.5 104t25 154.5v922h232v-922q0 -131 -41.5 -236.5t-114.5 -174t-170 -105t-211 -36.5q-113 0 -210 36.5t-169 105t-113.5 174t-41.5 236.5zM305 1640v226h213v-226h-213z M778 1640v226h213v-226h-213z" />
<glyph unicode="&#xdd;" horiz-adv-x="1378" d="M51 1454h262l375 -633l377 633h262l-522 -850v-604h-232v604zM604 1585l197 320h188l-203 -320h-182z" />
<glyph unicode="&#xde;" horiz-adv-x="1261" d="M113 0v1454h231v-287h340q240 0 374 -114t134 -322t-134 -322t-374 -114h-340v-295h-231zM344 494h324q142 0 217.5 54t75.5 183t-75.5 183.5t-217.5 54.5h-324v-475z" />
<glyph unicode="&#xdf;" horiz-adv-x="1263" d="M113 0v991q0 223 132.5 333t366.5 110q143 0 253 -39.5t175.5 -121.5t65.5 -198q0 -121 -62 -195t-157 -94q148 -26 226.5 -121t78.5 -247q0 -207 -128.5 -312.5t-383.5 -105.5h-178v201h153q148 0 227 51.5t79 177.5q0 135 -88 191.5t-242 56.5h-129v186h114 q135 0 196.5 44.5t61.5 135.5q0 191 -258 191q-138 0 -208 -58.5t-70 -189.5v-987h-225z" />
<glyph unicode="&#xe0;" d="M61 532q0 132 45 240t119.5 175t165 102.5t187.5 35.5q135 0 234.5 -59t133.5 -131h6v170h226v-1065h-226v170h-6q-34 -72 -133.5 -131t-234.5 -59q-97 0 -187.5 35.5t-165 102t-119.5 174.5t-45 240zM285 532q0 -110 49.5 -191t124 -119t162.5 -38q138 0 237.5 92.5 t99.5 255.5t-99.5 256t-237.5 93q-88 0 -163 -38.5t-124 -119.5t-49 -191zM344 1516h186l189 -320h-182z" />
<glyph unicode="&#xe1;" d="M61 532q0 132 45 240t119.5 175t165 102.5t187.5 35.5q135 0 234.5 -59t133.5 -131h6v170h226v-1065h-226v170h-6q-34 -72 -133.5 -131t-234.5 -59q-97 0 -187.5 35.5t-165 102t-119.5 174.5t-45 240zM285 532q0 -110 49.5 -191t124 -119t162.5 -38q138 0 237.5 92.5 t99.5 255.5t-99.5 256t-237.5 93q-88 0 -163 -38.5t-124 -119.5t-49 -191zM543 1196l196 320h189l-203 -320h-182z" />
<glyph unicode="&#xe2;" d="M61 532q0 132 45 240t119.5 175t165 102.5t187.5 35.5q135 0 234.5 -59t133.5 -131h6v170h226v-1065h-226v170h-6q-34 -72 -133.5 -131t-234.5 -59q-97 0 -187.5 35.5t-165 102t-119.5 174.5t-45 240zM285 532q0 -110 49.5 -191t124 -119t162.5 -38q138 0 237.5 92.5 t99.5 255.5t-99.5 256t-237.5 93q-88 0 -163 -38.5t-124 -119.5t-49 -191zM348 1262l199 254h160l200 -254l-116 -101l-164 211l-164 -211z" />
<glyph unicode="&#xe3;" d="M61 532q0 132 45 240t119.5 175t165 102.5t187.5 35.5q135 0 234.5 -59t133.5 -131h6v170h226v-1065h-226v170h-6q-34 -72 -133.5 -131t-234.5 -59q-97 0 -187.5 35.5t-165 102t-119.5 174.5t-45 240zM285 532q0 -110 49.5 -191t124 -119t162.5 -38q138 0 237.5 92.5 t99.5 255.5t-99.5 256t-237.5 93q-88 0 -163 -38.5t-124 -119.5t-49 -191zM297 1245q0 110 56.5 170t138.5 60q35 0 65 -11.5t51 -28.5t40 -33.5t39.5 -28t41.5 -11.5q29 0 49.5 20t20.5 54h159q0 -110 -57 -170t-139 -60q-42 0 -78.5 17.5t-58 39t-48.5 39t-51 17.5 q-29 0 -49 -20t-20 -54h-160z" />
<glyph unicode="&#xe4;" d="M61 532q0 132 45 240t119.5 175t165 102.5t187.5 35.5q135 0 234.5 -59t133.5 -131h6v170h226v-1065h-226v170h-6q-34 -72 -133.5 -131t-234.5 -59q-97 0 -187.5 35.5t-165 102t-119.5 174.5t-45 240zM285 532q0 -110 49.5 -191t124 -119t162.5 -38q138 0 237.5 92.5 t99.5 255.5t-99.5 256t-237.5 93q-88 0 -163 -38.5t-124 -119.5t-49 -191zM285 1251v226h213v-226h-213zM758 1251v226h213v-226h-213z" />
<glyph unicode="&#xe5;" d="M61 532q0 132 45 240t119.5 175t165 102.5t187.5 35.5q135 0 234.5 -59t133.5 -131h6v170h226v-1065h-226v170h-6q-34 -72 -133.5 -131t-234.5 -59q-97 0 -187.5 35.5t-165 102t-119.5 174.5t-45 240zM285 532q0 -110 49.5 -191t124 -119t162.5 -38q138 0 237.5 92.5 t99.5 255.5t-99.5 256t-237.5 93q-88 0 -163 -38.5t-124 -119.5t-49 -191zM416 1411q0 89 61 150t152 61q86 0 146.5 -61.5t60.5 -149.5q0 -86 -60.5 -147.5t-146.5 -61.5q-91 0 -152 61t-61 148zM563 1411q0 -27 17.5 -45t44.5 -18q28 0 46.5 18.5t18.5 44.5q0 28 -18.5 47 t-46.5 19q-27 0 -44.5 -19t-17.5 -47z" />
<glyph unicode="&#xe6;" horiz-adv-x="2095" d="M61 532q0 132 45 240t119.5 175t165 102.5t187.5 35.5q135 0 234.5 -59t133.5 -131h6v170h226v-94q144 114 335 114q83 0 162 -23t150.5 -74t121.5 -124t73 -181t8 -237h-836q26 -134 123.5 -206t238.5 -72q178 0 295 111l107 -111q-70 -88 -181.5 -138t-244.5 -50 q-202 0 -352 116v-96h-226v170h-6q-34 -72 -133.5 -131t-234.5 -59q-97 0 -187.5 35.5t-165 102t-119.5 174.5t-45 240zM285 532q0 -110 49.5 -191t124 -119t162.5 -38q138 0 237.5 92.5t99.5 255.5t-99.5 256t-237.5 93q-88 0 -163 -38.5t-124 -119.5t-49 -191zM1190 614 h637q-9 131 -99 205t-212 74q-119 0 -210.5 -72t-115.5 -207z" />
<glyph unicode="&#xe7;" horiz-adv-x="1134" d="M61 532q0 104 31 194.5t84.5 155.5t124.5 111.5t152 69t165 22.5q143 0 264 -67t193 -195l-168 -104q-46 75 -121 117.5t-165 42.5q-136 0 -236 -95t-100 -252t100 -251.5t236 -94.5q90 0 165 42.5t121 117.5l168 -104q-64 -111 -163.5 -177t-219.5 -81l-45 -64 q82 -1 133 -50.5t51 -123.5q0 -56 -31.5 -100t-82.5 -66.5t-115 -30t-129 8.5v80q191 -7 191 92q0 48 -43.5 74.5t-133.5 15.5l-28 55l67 111q-93 15 -175.5 57.5t-148 109.5t-103.5 165t-38 214z" />
<glyph unicode="&#xe8;" horiz-adv-x="1177" d="M61 532q0 130 45.5 237t121 174.5t170.5 104.5t198 37q83 0 162 -23t150 -74t121 -124t73 -181t8 -237h-836q26 -134 124 -206t239 -72q178 0 295 111l106 -111q-70 -88 -181.5 -138t-244.5 -50q-109 0 -208 37t-175.5 105.5t-122 174.5t-45.5 235zM272 614h637 q-9 131 -99 205t-212 74q-119 0 -210.5 -72t-115.5 -207zM309 1516h187l188 -320h-182z" />
<glyph unicode="&#xe9;" horiz-adv-x="1177" d="M61 532q0 130 45.5 237t121 174.5t170.5 104.5t198 37q83 0 162 -23t150 -74t121 -124t73 -181t8 -237h-836q26 -134 124 -206t239 -72q178 0 295 111l106 -111q-70 -88 -181.5 -138t-244.5 -50q-109 0 -208 37t-175.5 105.5t-122 174.5t-45.5 235zM272 614h637 q-9 131 -99 205t-212 74q-119 0 -210.5 -72t-115.5 -207zM508 1196l197 320h188l-203 -320h-182z" />
<glyph unicode="&#xea;" horiz-adv-x="1177" d="M61 532q0 130 45.5 237t121 174.5t170.5 104.5t198 37q83 0 162 -23t150 -74t121 -124t73 -181t8 -237h-836q26 -134 124 -206t239 -72q178 0 295 111l106 -111q-70 -88 -181.5 -138t-244.5 -50q-109 0 -208 37t-175.5 105.5t-122 174.5t-45.5 235zM272 614h637 q-9 131 -99 205t-212 74q-119 0 -210.5 -72t-115.5 -207zM313 1262l199 254h160l200 -254l-116 -101l-164 211l-164 -211z" />
<glyph unicode="&#xeb;" horiz-adv-x="1177" d="M61 532q0 130 45.5 237t121 174.5t170.5 104.5t198 37q83 0 162 -23t150 -74t121 -124t73 -181t8 -237h-836q26 -134 124 -206t239 -72q178 0 295 111l106 -111q-70 -88 -181.5 -138t-244.5 -50q-109 0 -208 37t-175.5 105.5t-122 174.5t-45.5 235zM250 1251v226h213 v-226h-213zM272 614h637q-9 131 -99 205t-212 74q-119 0 -210.5 -72t-115.5 -207zM723 1251v226h213v-226h-213z" />
<glyph unicode="&#xec;" horiz-adv-x="450" d="M-57 1516h186l188 -320h-182zM113 0v1065h225v-1065h-225z" />
<glyph unicode="&#xed;" horiz-adv-x="450" d="M113 0v1065h225v-1065h-225zM141 1196l197 320h188l-202 -320h-183z" />
<glyph unicode="&#xee;" horiz-adv-x="450" d="M-53 1262l198 254h160l201 -254l-117 -101l-164 211l-164 -211zM113 0v1065h225v-1065h-225z" />
<glyph unicode="&#xef;" horiz-adv-x="450" d="M-117 1251v226h213v-226h-213zM113 0v1065h225v-1065h-225zM356 1251v226h213v-226h-213z" />
<glyph unicode="&#xf0;" horiz-adv-x="1239" d="M61 516q0 262 144.5 405.5t376.5 143.5q120 0 174 -45l-101 135l-190 -31v113l117 18l-131 179h256l106 -142l191 31v-113l-117 -18q125 -173 182 -331t57 -345q0 -130 -45 -234t-122 -169t-173.5 -99t-203.5 -34q-99 0 -190.5 34t-166 98.5t-119.5 169.5t-45 234z M293 516q0 -85 26 -152t68.5 -106t92 -58.5t102.5 -19.5q136 0 224.5 83.5t88.5 252.5q0 180 -86 264t-227 84q-61 0 -112 -19t-91.5 -59t-63 -109t-22.5 -161z" />
<glyph unicode="&#xf1;" horiz-adv-x="1200" d="M113 0v1065h225v-160q46 80 133 130t209 50q84 0 156 -27t129 -80.5t89.5 -143.5t32.5 -207v-627h-227v590q0 138 -70 214.5t-190 76.5q-118 0 -190 -77t-72 -214v-590h-225zM293 1245q0 110 56 170t138 60q42 0 79 -17.5t58.5 -39t48.5 -39t52 -17.5q29 0 49.5 20 t20.5 54h159q0 -110 -57 -170t-139 -60q-42 0 -78.5 17.5t-58 39t-48.5 39t-51 17.5q-29 0 -49 -20t-20 -54h-160z" />
<glyph unicode="&#xf2;" horiz-adv-x="1236" d="M61 532q0 129 48 236.5t127.5 175t178 104.5t203.5 37q84 0 164 -22.5t151.5 -69t125.5 -111.5t85.5 -155.5t31.5 -194.5q0 -129 -48 -236t-127.5 -175t-178.5 -104.5t-204 -36.5t-203.5 36.5t-178 104.5t-127.5 175t-48 236zM285 532q0 -158 98 -252t235 -94t234.5 94 t97.5 252t-97.5 252.5t-234.5 94.5t-235 -94.5t-98 -252.5zM334 1516h186l189 -320h-183z" />
<glyph unicode="&#xf3;" horiz-adv-x="1236" d="M61 532q0 129 48 236.5t127.5 175t178 104.5t203.5 37q84 0 164 -22.5t151.5 -69t125.5 -111.5t85.5 -155.5t31.5 -194.5q0 -129 -48 -236t-127.5 -175t-178.5 -104.5t-204 -36.5t-203.5 36.5t-178 104.5t-127.5 175t-48 236zM285 532q0 -158 98 -252t235 -94t234.5 94 t97.5 252t-97.5 252.5t-234.5 94.5t-235 -94.5t-98 -252.5zM535 1196l196 320h189l-203 -320h-182z" />
<glyph unicode="&#xf4;" horiz-adv-x="1236" d="M61 532q0 129 48 236.5t127.5 175t178 104.5t203.5 37q84 0 164 -22.5t151.5 -69t125.5 -111.5t85.5 -155.5t31.5 -194.5q0 -129 -48 -236t-127.5 -175t-178.5 -104.5t-204 -36.5t-203.5 36.5t-178 104.5t-127.5 175t-48 236zM285 532q0 -158 98 -252t235 -94t234.5 94 t97.5 252t-97.5 252.5t-234.5 94.5t-235 -94.5t-98 -252.5zM340 1262l199 254h159l201 -254l-117 -101l-164 211l-163 -211z" />
<glyph unicode="&#xf5;" horiz-adv-x="1236" d="M61 532q0 129 48 236.5t127.5 175t178 104.5t203.5 37q84 0 164 -22.5t151.5 -69t125.5 -111.5t85.5 -155.5t31.5 -194.5q0 -129 -48 -236t-127.5 -175t-178.5 -104.5t-204 -36.5t-203.5 36.5t-178 104.5t-127.5 175t-48 236zM285 532q0 -158 98 -252t235 -94t234.5 94 t97.5 252t-97.5 252.5t-234.5 94.5t-235 -94.5t-98 -252.5zM289 1245q0 110 56 170t138 60q42 0 79 -17.5t58.5 -39t48.5 -39t52 -17.5q29 0 49.5 20t20.5 54h159q0 -110 -57 -170t-139 -60q-42 0 -78.5 17.5t-58 39t-48.5 39t-51 17.5q-29 0 -49 -20t-20 -54h-160z" />
<glyph unicode="&#xf6;" horiz-adv-x="1236" d="M61 532q0 129 48 236.5t127.5 175t178 104.5t203.5 37q84 0 164 -22.5t151.5 -69t125.5 -111.5t85.5 -155.5t31.5 -194.5q0 -129 -48 -236t-127.5 -175t-178.5 -104.5t-204 -36.5t-203.5 36.5t-178 104.5t-127.5 175t-48 236zM276 1251v226h213v-226h-213zM285 532 q0 -158 98 -252t235 -94t234.5 94t97.5 252t-97.5 252.5t-234.5 94.5t-235 -94.5t-98 -252.5zM750 1251v226h213v-226h-213z" />
<glyph unicode="&#xf7;" horiz-adv-x="1024" d="M92 473v189h838v-189h-838zM373 240q0 57 38 94t93 37q56 0 94.5 -36.5t38.5 -94.5t-38.5 -96t-94.5 -38q-55 0 -93 38t-38 96zM373 897q0 57 38 94t93 37q56 0 94.5 -36.5t38.5 -94.5t-38.5 -95.5t-94.5 -37.5q-55 0 -93 37.5t-38 95.5z" />
<glyph unicode="&#xf8;" horiz-adv-x="1236" d="M61 532q0 129 48 236.5t127.5 175t178 104.5t203.5 37q76 0 146 -18l55 117h215l-92 -195q107 -71 170.5 -188t63.5 -269q0 -129 -48 -236t-127.5 -175t-178.5 -104.5t-204 -36.5q-81 0 -151 20l-49 -102h-215l88 182q-107 73 -168.5 187.5t-61.5 264.5zM285 532 q0 -156 100 -253l287 595q-45 5 -54 5q-137 0 -235 -94.5t-98 -252.5zM559 190q36 -4 59 -4q137 0 234.5 94t97.5 252q0 162 -104 259z" />
<glyph unicode="&#xf9;" horiz-adv-x="1200" d="M113 438v627h227v-590q0 -138 70 -214.5t190 -76.5q118 0 190 77t72 214v590h225v-1065h-225v160q-46 -80 -133 -130t-209 -50q-84 0 -156 27t-129 80.5t-89.5 143.5t-32.5 207zM324 1516h186l188 -320h-182z" />
<glyph unicode="&#xfa;" horiz-adv-x="1200" d="M113 438v627h227v-590q0 -138 70 -214.5t190 -76.5q118 0 190 77t72 214v590h225v-1065h-225v160q-46 -80 -133 -130t-209 -50q-84 0 -156 27t-129 80.5t-89.5 143.5t-32.5 207zM522 1196l197 320h188l-202 -320h-183z" />
<glyph unicode="&#xfb;" horiz-adv-x="1200" d="M113 438v627h227v-590q0 -138 70 -214.5t190 -76.5q118 0 190 77t72 214v590h225v-1065h-225v160q-46 -80 -133 -130t-209 -50q-84 0 -156 27t-129 80.5t-89.5 143.5t-32.5 207zM328 1262l198 254h160l201 -254l-117 -101l-164 211l-164 -211z" />
<glyph unicode="&#xfc;" horiz-adv-x="1200" d="M113 438v627h227v-590q0 -138 70 -214.5t190 -76.5q118 0 190 77t72 214v590h225v-1065h-225v160q-46 -80 -133 -130t-209 -50q-84 0 -156 27t-129 80.5t-89.5 143.5t-32.5 207zM264 1251v226h213v-226h-213zM737 1251v226h213v-226h-213z" />
<glyph unicode="&#xfd;" horiz-adv-x="1191" d="M41 1065h231l324 -793l322 793h233l-451 -1065l-168 -389h-223l176 397zM541 1196l196 320h189l-203 -320h-182z" />
<glyph unicode="&#xfe;" d="M113 -389v1843h225v-559h8q32 72 132 131t235 59q77 0 151 -22t140.5 -67.5t117 -110t80 -155.5t29.5 -198t-29.5 -198t-80 -155t-117 -110t-140.5 -67.5t-151 -21.5q-135 0 -235 59t-132 131h-8v-559h-225zM332 532q0 -163 100 -255.5t238 -92.5q88 0 162.5 38t124 119 t49.5 191t-49 191t-124 119.5t-163 38.5q-138 0 -238 -93t-100 -256z" />
<glyph unicode="&#xff;" horiz-adv-x="1191" d="M41 1065h231l324 -793l322 793h233l-451 -1065l-168 -389h-223l176 397zM281 1251v226h213v-226h-213zM754 1251v226h213v-226h-213z" />
<glyph unicode="&#x152;" horiz-adv-x="2252" d="M92 727q0 163 60 304.5t161.5 237.5t237 151t285.5 55q147 0 280.5 -52.5t235.5 -148.5v180h802v-215h-571v-403h483v-209h-483v-412h590v-215h-821v180q-102 -96 -235.5 -148t-280.5 -52q-150 0 -285.5 54.5t-237 151t-161.5 237.5t-60 304zM330 727q0 -155 70.5 -276.5 t185 -185.5t250.5 -64t250.5 64t184.5 185.5t70 276.5t-70 276.5t-184.5 185.5t-250.5 64t-250.5 -64t-185 -185.5t-70.5 -276.5z" />
<glyph unicode="&#x153;" horiz-adv-x="2082" d="M61 532q0 129 48 236.5t127.5 175t178 104.5t203.5 37q133 0 253 -56t198 -161q75 105 190 161t244 56q83 0 162 -23t150 -74t121 -124t73 -181t8 -237h-835q26 -134 123.5 -206t238.5 -72q178 0 295 111l107 -111q-70 -88 -181.5 -138t-244.5 -50q-136 0 -255 56.5 t-194 160.5q-80 -104 -201 -160.5t-252 -56.5q-105 0 -203.5 36.5t-178 104.5t-127.5 175t-48 236zM285 532q0 -158 98 -252t235 -94t234.5 94t97.5 252t-97.5 252.5t-234.5 94.5t-235 -94.5t-98 -252.5zM1180 614h637q-9 131 -99.5 205t-212.5 74q-119 0 -210 -72 t-115 -207z" />
<glyph unicode="&#x178;" horiz-adv-x="1378" d="M51 1454h262l375 -633l377 633h262l-522 -850v-604h-232v604zM346 1640v226h213v-226h-213zM819 1640v226h213v-226h-213z" />
<glyph unicode="&#x2c6;" horiz-adv-x="641" d="M41 1262l199 254h159l201 -254l-117 -101l-164 211l-163 -211z" />
<glyph unicode="&#x2dc;" horiz-adv-x="743" d="M41 1245q0 110 56.5 170t138.5 60q35 0 65 -11.5t51 -28.5t40 -33.5t39.5 -28t41.5 -11.5q29 0 49.5 20t20.5 54h159q0 -110 -57 -170t-139 -60q-42 0 -78.5 17.5t-58 39t-48.5 39t-51 17.5q-29 0 -49 -20t-20 -54h-160z" />
<glyph unicode="&#x2000;" horiz-adv-x="1005" />
<glyph unicode="&#x2001;" horiz-adv-x="2011" />
<glyph unicode="&#x2002;" horiz-adv-x="1005" />
<glyph unicode="&#x2003;" horiz-adv-x="2011" />
<glyph unicode="&#x2004;" horiz-adv-x="670" />
<glyph unicode="&#x2005;" horiz-adv-x="502" />
<glyph unicode="&#x2006;" horiz-adv-x="335" />
<glyph unicode="&#x2007;" horiz-adv-x="335" />
<glyph unicode="&#x2008;" horiz-adv-x="251" />
<glyph unicode="&#x2009;" horiz-adv-x="402" />
<glyph unicode="&#x200a;" horiz-adv-x="111" />
<glyph unicode="&#x2010;" horiz-adv-x="819" d="M92 473v189h635v-189h-635z" />
<glyph unicode="&#x2011;" horiz-adv-x="819" d="M92 473v189h635v-189h-635z" />
<glyph unicode="&#x2012;" horiz-adv-x="819" d="M92 473v189h635v-189h-635z" />
<glyph unicode="&#x2013;" horiz-adv-x="1228" d="M92 473v189h1045v-189h-1045z" />
<glyph unicode="&#x2014;" horiz-adv-x="1351" d="M92 473v189h1168v-189h-1168z" />
<glyph unicode="&#x2018;" horiz-adv-x="477" d="M51 954l178 500h197l-176 -500h-199z" />
<glyph unicode="&#x2019;" horiz-adv-x="477" d="M51 954l176 500h199l-178 -500h-197z" />
<glyph unicode="&#x201a;" horiz-adv-x="487" d="M51 -279l176 500h199l-178 -500h-197z" />
<glyph unicode="&#x201c;" horiz-adv-x="788" d="M51 954l178 500h197l-176 -500h-199zM362 954l179 500h196l-176 -500h-199z" />
<glyph unicode="&#x201d;" horiz-adv-x="788" d="M51 954l176 500h199l-178 -500h-197zM362 954l177 500h198l-178 -500h-197z" />
<glyph unicode="&#x201e;" horiz-adv-x="798" d="M51 -279l176 500h199l-178 -500h-197zM362 -279l177 500h198l-178 -500h-197z" />
<glyph unicode="&#x2022;" horiz-adv-x="468" d="M102 600q0 57 38 94t93 37q57 0 95.5 -36.5t38.5 -94.5t-39 -95.5t-95 -37.5q-55 0 -93 37.5t-38 95.5z" />
<glyph unicode="&#x2026;" horiz-adv-x="1419" d="M72 113q0 57 38 94t93 37q56 0 94.5 -36.5t38.5 -94.5t-38.5 -95.5t-94.5 -37.5q-55 0 -93 37.5t-38 95.5zM578 113q0 57 38 94t93 37q56 0 94.5 -36.5t38.5 -94.5t-38.5 -95.5t-94.5 -37.5q-55 0 -93 37.5t-38 95.5zM1083 113q0 57 38 94t93 37q57 0 95.5 -36.5 t38.5 -94.5t-39 -95.5t-95 -37.5q-55 0 -93 37.5t-38 95.5z" />
<glyph unicode="&#x202f;" horiz-adv-x="402" />
<glyph unicode="&#x2039;" horiz-adv-x="509" d="M82 541v96l303 303l74 -78l-221 -272l221 -275l-74 -77z" />
<glyph unicode="&#x203a;" horiz-adv-x="509" d="M51 315l221 275l-221 272l74 78l303 -303v-96l-303 -303z" />
<glyph unicode="&#x205f;" horiz-adv-x="502" />
<glyph unicode="&#x20ac;" horiz-adv-x="1542" d="M31 543v123h119q-3 30 -3 61v14h-116v123h127q30 182 135.5 322t261.5 214.5t338 74.5q76 0 149 -14t151 -46.5t150 -94t127 -146.5l-167 -119q-75 103 -181.5 150.5t-222.5 47.5q-183 0 -320.5 -105.5t-179.5 -283.5h437v-123h-451v-14q0 -41 2 -61h449v-123h-422 q52 -158 184.5 -250t302.5 -92q259 0 402 198l167 -118q-55 -85 -127 -146.5t-150 -94t-151 -46.5t-149 -14q-264 0 -465.5 154t-259.5 409h-137z" />
<glyph unicode="&#x2122;" horiz-adv-x="1159" d="M133 1372v82h350v-82h-129v-287h-92v287h-129zM555 1085v369h94l142 -266l141 266h94v-369h-94v209l-105 -209h-73l-105 209v-209h-94z" />
<glyph unicode="&#x25fc;" horiz-adv-x="1064" d="M0 0v1065h1065v-1065h-1065z" />
</font>
</defs>
</svg>
