<?xml version="1.0" standalone="no"?>
<!DOCTYPE svg PUBLIC "-//W3C//DTD SVG 1.1//EN" "http://www.w3.org/Graphics/SVG/1.1/DTD/svg11.dtd" >
<svg xmlns="http://www.w3.org/2000/svg" xmlns:xlink="http://www.w3.org/1999/xlink" version="1.1">
<metadata></metadata>
<defs>
<font id="montheavy" horiz-adv-x="1523" >
<font-face units-per-em="2048" ascent="1638" descent="-410" />
<missing-glyph horiz-adv-x="444" />
<glyph horiz-adv-x="0" />
<glyph horiz-adv-x="682" />
<glyph unicode=" "  horiz-adv-x="444" />
<glyph unicode="&#x09;" horiz-adv-x="444" />
<glyph unicode="&#xa0;" horiz-adv-x="444" />
<glyph unicode="!" horiz-adv-x="645" d="M137 0v354h370v-354h-370zM145 477v998h356v-998h-356z" />
<glyph unicode="&#x22;" horiz-adv-x="1001" d="M109 885v553h322v-553h-322zM571 885v553h322v-553h-322z" />
<glyph unicode="#" horiz-adv-x="1341" d="M82 308v303h172l33 206h-158v292h205l49 325h321l-49 -325h175l49 325h319l-49 -325h109v-292h-151l-29 -206h132v-303h-182l-45 -306h-319l45 306h-183l-49 -306h-321l49 306h-123zM572 611h188l30 206h-184z" />
<glyph unicode="$" horiz-adv-x="1247" d="M73 443h391q0 -66 46.5 -102.5t114.5 -36.5q64 0 109.5 30t45.5 81q0 21 -7.5 38t-26 30.5t-34.5 23t-50.5 20t-54 15.5t-63.5 16q-45 11 -68.5 17t-68 20t-70 25.5t-63.5 31.5t-60.5 40.5t-48.5 51t-40.5 64t-24 78t-9.5 95.5q0 165 97.5 271t274.5 138v135h306v-137 q175 -34 269.5 -145t94.5 -282l-380 -1q0 58 -40.5 89t-102.5 31q-55 0 -94.5 -22.5t-39.5 -64.5q0 -23 13 -42t30 -31t53.5 -25t61.5 -20t76 -20h1q175 -45 256 -87q204 -106 210 -332v-14q0 -179 -105.5 -291t-288.5 -146v-143h-306v143q-190 35 -297 154t-107 304z" />
<glyph unicode="%" horiz-adv-x="1773" d="M52 1048q0 151 98 246t254 95q157 0 254 -94.5t97 -246.5t-97.5 -246.5t-253.5 -94.5t-254 95t-98 246zM300 1048q0 -46 29.5 -75.5t74.5 -29.5t74 29.5t29 75.5q0 47 -29 76t-74 29t-74.5 -29.5t-29.5 -75.5zM337 0l821 1362h269l-821 -1362h-269zM1019 318 q0 151 98.5 246.5t253.5 95.5t253 -95.5t98 -246.5t-98 -246t-253 -95q-156 0 -254 95t-98 246zM1267 318q0 -46 29.5 -75.5t74.5 -29.5q46 0 74.5 29.5t28.5 75.5q0 47 -28.5 76t-74.5 29q-45 0 -74.5 -29.5t-29.5 -75.5z" />
<glyph unicode="&#x26;" horiz-adv-x="1357" d="M66 392q0 134 67 230t182 173q-79 113 -107.5 186t-28.5 141q0 169 123 265t312 96q186 0 308.5 -96.5t122.5 -263.5q0 -57 -17.5 -108.5t-43.5 -90t-68.5 -77t-80.5 -65.5t-91 -59q73 -88 173 -203q37 78 44 167h311q-10 -235 -138 -416q141 -160 237 -271h-376 q-45 49 -69 76q-175 -108 -394 -108q-207 0 -336.5 117.5t-129.5 306.5zM410 403q0 -60 41.5 -96.5t110.5 -36.5q80 0 154 37q-139 157 -220 255q-86 -76 -86 -159zM506 1112q0 -60 69 -166q71 42 108 81t37 85q0 47 -30 75.5t-76 28.5q-48 0 -78 -28t-30 -76z" />
<glyph unicode="'" horiz-adv-x="540" d="M109 885v553h322v-553h-322z" />
<glyph unicode="(" horiz-adv-x="761" d="M74 647q0 276 77.5 528t219.5 459h406q-60 -77 -116 -177t-106.5 -226t-81 -278.5t-30.5 -305.5q0 -152 29.5 -304t79 -277t105 -225t116.5 -176h-402q-141 205 -219 456t-78 526z" />
<glyph unicode=")" horiz-adv-x="761" d="M-14 1634h406q142 -207 219.5 -459t77.5 -528q0 -275 -78 -526t-219 -456h-402q61 76 116.5 176t105 225t79 277t29.5 304q0 153 -30.5 305.5t-81 278.5t-106.5 226t-116 177z" />
<glyph unicode="*" horiz-adv-x="882" d="M59 1115l85 241l170 -62v185h255v-185l169 62l86 -241l-169 -59l119 -138l-197 -166l-136 163l-135 -163l-197 166l117 137z" />
<glyph unicode="+" horiz-adv-x="1120" d="M63 510v322h325v340h344v-340h324v-322h-324v-349h-344v349h-325z" />
<glyph unicode="," horiz-adv-x="583" d="M106 0v354h372v-324q0 -165 -98 -269.5t-259 -118.5v189q79 7 121 54t42 115h-178z" />
<glyph unicode="-" horiz-adv-x="972" d="M112 394v346h750v-346h-750z" />
<glyph unicode="." horiz-adv-x="581" d="M106 0v354h369v-354h-369z" />
<glyph unicode="/" horiz-adv-x="1103" d="M37 -172l629 1731h399l-628 -1731h-400z" />
<glyph unicode="0" horiz-adv-x="1351" d="M79 679q0 327 162.5 521.5t434.5 194.5t434 -194.5t162 -521.5q0 -326 -162 -520.5t-434 -194.5t-434.5 194.5t-162.5 520.5zM453 679q0 -188 58 -289t165 -101t164.5 100.5t57.5 288.5t-57.5 290t-164.5 102t-165 -101.5t-58 -289.5z" />
<glyph unicode="1" horiz-adv-x="772" d="M61 1053v309h568v-1362h-366v1053h-202z" />
<glyph unicode="2" horiz-adv-x="1157" d="M55 0v83q176 208 277 329.5t178 219t109 151.5t46 92.5t14 75.5q0 55 -33 89t-86 34q-57 0 -90 -36t-33 -98v-26h-360v25q0 208 128.5 333t350.5 125q217 0 352.5 -121t135.5 -313q0 -132 -71 -262.5t-284 -377.5h379v-323h-1013z" />
<glyph unicode="3" horiz-adv-x="1161" d="M69 441h350q3 -72 44.5 -115.5t108.5 -43.5q70 0 114.5 46.5t44.5 121.5t-47 118t-127 43h-218v76l221 364h-457v311h935v-63l-273 -437q147 -37 233.5 -149t86.5 -269q0 -208 -145 -342t-369 -134q-219 0 -357.5 130.5t-144.5 342.5z" />
<glyph unicode="4" horiz-adv-x="1200" d="M23 245v66l437 1051h361l-337 -812h218l80 300h245v-300h123v-305h-123v-245h-350v245h-654z" />
<glyph unicode="5" horiz-adv-x="1155" d="M71 440h350q0 -69 43.5 -113.5t112.5 -44.5q67 0 111 45.5t44 114.5q0 74 -46.5 119.5t-121.5 45.5h-424l-35 45l76 710h807v-310h-526l-17 -156h127q228 0 371 -126.5t143 -327.5q0 -208 -143 -341t-366 -133t-364.5 132.5t-141.5 339.5z" />
<glyph unicode="6" horiz-adv-x="1193" d="M72 471q0 107 36 218t120 251l250 422h393l-270 -450q51 7 90 7q205 0 334 -124.5t129 -321.5q0 -224 -150 -364.5t-390 -140.5q-241 0 -391.5 140t-150.5 363zM423 473q0 -85 53.5 -138.5t136.5 -53.5q84 0 137 53.5t53 138.5q0 86 -53 139.5t-137 53.5 q-83 0 -136.5 -53.5t-53.5 -139.5z" />
<glyph unicode="7" horiz-adv-x="1126" d="M50 1043v319h1046v-53l-516 -1309h-385l417 1043h-562z" />
<glyph unicode="8" horiz-adv-x="1232" d="M78 402q0 205 181 319q-143 116 -143 280q0 177 138 286.5t363 109.5t363 -109.5t138 -286.5q0 -165 -144 -280q182 -116 182 -319q0 -193 -149.5 -313.5t-390.5 -120.5t-389.5 120t-148.5 314zM434 414q0 -72 51 -117t133 -45t131.5 45t49.5 117t-49.5 117t-131.5 45 t-133 -45t-51 -117zM461 990q0 -59 44 -97.5t113 -38.5t111.5 38t42.5 98t-42.5 98t-111.5 38t-113 -38.5t-44 -97.5z" />
<glyph unicode="9" horiz-adv-x="1193" d="M41 892q0 224 150 364.5t390 140.5q241 0 391.5 -140t150.5 -363q0 -107 -36.5 -217.5t-119.5 -251.5l-251 -425h-393q45 75 135.5 226.5t135.5 226.5q-44 -6 -90 -6q-205 0 -334 124t-129 321zM382 892q0 -87 56 -141t144 -54t144 54.5t56 140.5t-56.5 140t-143.5 54 q-88 0 -144 -54t-56 -140z" />
<glyph unicode=":" horiz-adv-x="591" d="M112 0v354h369v-354h-369zM112 739v354h369v-354h-369z" />
<glyph unicode=";" horiz-adv-x="595" d="M112 0v354h371v-324q0 -165 -97.5 -269.5t-258.5 -118.5v189q79 7 121 54t42 115h-178zM114 740v354h369v-354h-369z" />
<glyph unicode="&#x3c;" horiz-adv-x="1069" d="M49 603v117l881 553v-399l-415 -209l415 -205v-399z" />
<glyph unicode="=" horiz-adv-x="1196" d="M117 284v310h960v-310h-960zM117 738v310h960v-310h-960z" />
<glyph unicode="&#x3e;" horiz-adv-x="1069" d="M139 61v399l414 205l-414 209v399l880 -553v-117z" />
<glyph unicode="?" horiz-adv-x="1144" d="M50 1047q0 148 70 256t184 160.5t257 52.5q222 0 366.5 -126t144.5 -332q0 -56 -13 -105t-30 -81.5t-49 -67t-53 -52.5t-60 -48q-38 -29 -56.5 -45t-43 -43t-35 -56t-10.5 -64v-39h-356v39q0 67 14 123.5t31.5 92t51 71.5t54.5 53t60 45q33 24 50 37.5t38 35.5t29.5 46 t8.5 54q0 64 -41.5 103t-101.5 39q-62 0 -107 -40t-45 -109h-358zM358 0v354h370v-354h-370z" />
<glyph unicode="@" horiz-adv-x="2078" d="M64 495q0 209 79 382t213.5 286.5t311 175.5t374.5 62q157 0 301.5 -38t265 -113t210.5 -179.5t140 -246t50 -303.5q0 -117 -35 -212.5t-94 -156t-135.5 -93t-162.5 -32.5q-96 0 -170.5 34.5t-117.5 97.5q-122 -132 -308 -132q-203 0 -333 131t-130 335t130 334.5 t333 130.5q174 0 294 -117l33 54h159v-464q0 -61 32.5 -96t82.5 -35q61 0 102 57t41 164q0 176 -86 315t-241 217.5t-353 78.5q-201 0 -361.5 -82t-251 -227.5t-90.5 -327.5q0 -178 82 -319t229 -219.5t333 -78.5q164 0 317 63v-264q-186 -67 -359 -67q-251 0 -453 113.5 t-317 316t-115 455.5zM835 495q0 -79 51 -130.5t130 -51.5t130 51.5t51 130.5t-51 130t-130 51t-130 -51t-51 -130z" />
<glyph unicode="A" d="M0 0l563 1434h386l575 -1434h-435l-79 233h-508l-79 -233h-423zM598 542h316l-159 444z" />
<glyph unicode="B" horiz-adv-x="1333" d="M139 0v1434h647q191 0 315.5 -104t124.5 -263q0 -95 -49 -177.5t-132 -132.5q102 -48 160.5 -140.5t58.5 -208.5q0 -174 -133 -291t-332 -117h-660zM518 324h214q64 0 103 36.5t39 94.5q0 57 -39 93.5t-103 36.5h-214v-261zM518 876h199q62 0 98 34.5t36 90.5t-36 90.5 t-98 34.5h-199v-250z" />
<glyph unicode="C" horiz-adv-x="1605" d="M64 716q0 213 99 385.5t273.5 270.5t389.5 98q282 0 481.5 -169.5t243.5 -442.5h-400q-37 111 -124 177t-200 66q-152 0 -252 -109t-100 -276q0 -166 100 -274t252 -108q119 0 206.5 71.5t117.5 191.5h404q-41 -283 -242 -458t-487 -175q-215 0 -389.5 98t-273.5 270 t-99 384z" />
<glyph unicode="D" horiz-adv-x="1525" d="M139 0v1434h580q214 0 383 -91t263 -254.5t94 -370.5t-94 -370.5t-263 -255.5t-383 -92h-580zM535 362h165q159 0 256.5 98.5t97.5 257.5q0 160 -97.5 257t-256.5 97h-165v-710z" />
<glyph unicode="E" horiz-adv-x="1161" d="M139 0v1434h917v-342h-524v-211h471v-324h-471v-214h541v-343h-934z" />
<glyph unicode="F" horiz-adv-x="1122" d="M139 0v1434h912v-358h-514v-228h461v-346h-461v-502h-398z" />
<glyph unicode="G" horiz-adv-x="1644" d="M65 716q0 161 57 301t157 239.5t241.5 156.5t304.5 57q282 0 490 -159t254 -409h-414q-39 91 -127.5 144.5t-198.5 53.5q-161 0 -260.5 -106t-99.5 -278q0 -171 99 -276.5t261 -105.5q113 0 202 50t123 133h-356v249h786q0 -174 -55.5 -323t-154 -254.5t-239.5 -165 t-307 -59.5q-162 0 -304 56.5t-242.5 155.5t-158.5 239t-58 301z" />
<glyph unicode="H" horiz-adv-x="1503" d="M139 0v1434h398v-518h430v518h399v-1434h-399v550h-430v-550h-398z" />
<glyph unicode="I" horiz-adv-x="677" d="M139 0v1434h400v-1434h-400z" />
<glyph unicode="J" horiz-adv-x="1273" d="M32 492v56h398v-36q0 -82 44.5 -131.5t118.5 -49.5q70 0 114 49.5t44 131.5v922h397v-942q0 -234 -153.5 -381t-401.5 -147t-404.5 147t-156.5 381z" />
<glyph unicode="K" horiz-adv-x="1386" d="M139 0v1434h395v-605l378 605h458l-459 -695l502 -739h-468l-411 633v-633h-395z" />
<glyph unicode="L" horiz-adv-x="1087" d="M139 0v1434h400v-1072h510v-362h-910z" />
<glyph unicode="M" horiz-adv-x="2011" d="M57 0l217 1434h394l338 -780l340 780h394l215 -1434h-399l-112 826l-380 -828h-117l-380 827l-110 -825h-400z" />
<glyph unicode="N" horiz-adv-x="1556" d="M139 0v1434h345l551 -753v753h382v-1434h-326l-570 778v-778h-382z" />
<glyph unicode="O" horiz-adv-x="1703" d="M64 717q0 216 100.5 388t280.5 268.5t408 96.5q170 0 316.5 -56.5t250 -155t162.5 -239t59 -302.5t-59 -302.5t-162.5 -239t-250 -155t-316.5 -56.5q-228 0 -408 96.5t-280.5 268.5t-100.5 388zM475 717q0 -167 107 -276.5t271 -109.5t270 109t106 277t-106 276.5 t-270 108.5t-271 -109t-107 -276z" />
<glyph unicode="P" horiz-adv-x="1320" d="M139 0v1434h610q229 0 380 -146.5t151 -371.5t-151 -372.5t-380 -147.5h-215v-396h-395zM534 741h168q77 0 124.5 48.5t47.5 125.5t-47.5 125.5t-124.5 48.5h-168v-348z" />
<glyph unicode="Q" horiz-adv-x="1705" d="M64 717q0 216 100.5 388t280.5 268.5t408 96.5q170 0 316.5 -56.5t250 -155t162.5 -239t59 -302.5q0 -166 -61 -308t-172 -244l298 -360h-420l-161 199q-128 -40 -272 -40q-228 0 -408 96.5t-280.5 268.5t-100.5 388zM475 717q0 -167 107 -276.5t271 -109.5t270 109 t106 277t-106 276.5t-270 108.5t-271 -109t-107 -276z" />
<glyph unicode="R" horiz-adv-x="1384" d="M139 0v1434h621q233 0 383 -142t150 -366q0 -130 -60 -235t-168 -170l285 -521h-441l-232 439h-143v-439h-395zM534 771h180q81 0 127.5 43.5t46.5 112.5t-46.5 112.5t-127.5 43.5h-180v-312z" />
<glyph unicode="S" horiz-adv-x="1288" d="M69 463h407q0 -73 48.5 -112.5t120.5 -39.5q66 0 114 33t48 89q0 22 -7.5 39.5t-27.5 32t-36.5 24t-53 20.5t-56.5 16.5t-67 16.5q-172 43 -248 80q-193 93 -220 291q-4 33 -4 70q0 210 145.5 327t400.5 117q257 0 399 -124t142 -344h-397q0 65 -42 99.5t-107 34.5 q-57 0 -97.5 -25.5t-40.5 -72.5q0 -20 7.5 -36t26.5 -29.5t36 -23t51.5 -20t55.5 -16.5t66 -17q47 -12 73 -19t73 -22t75 -27.5t68.5 -34.5t65 -44t52.5 -54.5t43.5 -68t26 -82.5t10.5 -100q0 -228 -157.5 -352t-415.5 -124q-265 0 -421.5 133t-156.5 365z" />
<glyph unicode="T" horiz-adv-x="1251" d="M38 1078v356h1176v-356h-390v-1078h-396v1078h-390z" />
<glyph unicode="U" horiz-adv-x="1499" d="M123 555v879h404v-872q0 -105 61.5 -168t160.5 -63t160.5 63t61.5 168v872h404v-879q0 -263 -175.5 -427t-450.5 -164t-450.5 164t-175.5 427z" />
<glyph unicode="V" horiz-adv-x="1482" d="M0 1434h451l292 -892l286 892h448l-549 -1434h-367z" />
<glyph unicode="W" horiz-adv-x="2150" d="M7 1434h425l232 -827l342 820h136l348 -820l228 827h420l-442 -1434h-347l-275 692l-270 -692h-348z" />
<glyph unicode="X" horiz-adv-x="1359" d="M-4 0l431 746l-407 688h445l215 -406l217 406h439l-402 -695l431 -739h-447l-236 440l-238 -440h-448z" />
<glyph unicode="Y" horiz-adv-x="1431" d="M17 1434h438l262 -518l262 518h438l-501 -873v-561h-402v562z" />
<glyph unicode="Z" horiz-adv-x="1234" d="M47 0v82l531 984h-496v368h1076v-90l-529 -976h553v-368h-1135z" />
<glyph unicode="[" horiz-adv-x="743" d="M142 -334v1987h532v-290h-199v-1404h203v-293h-536z" />
<glyph unicode="\" horiz-adv-x="1103" d="M40 1559h399l628 -1731h-399z" />
<glyph unicode="]" horiz-adv-x="743" d="M67 -41h202v1404h-198v290h531v-1987h-535v293z" />
<glyph unicode="^" horiz-adv-x="1189" d="M52 694l489 744h110l488 -744h-395l-150 274l-147 -274h-395z" />
<glyph unicode="_" horiz-adv-x="1073" d="M0 -76h1074v-333h-1074v333z" />
<glyph unicode="`" horiz-adv-x="1095" d="M215 1568h388l116 -340h-279z" />
<glyph unicode="a" horiz-adv-x="1417" d="M56 554q0 257 163 421.5t417 164.5q195 0 338 -118l39 85h284v-1106h-294l-33 78q-143 -115 -334 -115q-167 0 -299.5 75.5t-206.5 210t-74 304.5zM440 553q0 -108 70 -180t177 -72t177.5 72t70.5 180t-70.5 180t-177.5 72t-177 -71.5t-70 -180.5z" />
<glyph unicode="b" horiz-adv-x="1406" d="M120 0v1505h376v-441q123 76 275 76q256 0 418.5 -165t162.5 -423t-162.5 -423t-418.5 -165q-191 0 -333 118l-36 -82h-282zM473 552q0 -108 70 -179.5t177 -71.5q106 0 177 72t71 179q0 108 -70.5 180t-177.5 72t-177 -72t-70 -180z" />
<glyph unicode="c" horiz-adv-x="1302" d="M56 554q0 256 172 421t440 165q233 0 393.5 -134.5t192.5 -355.5h-371q-24 68 -83 108.5t-133 40.5q-101 0 -165 -69t-64 -177t64.5 -178t164.5 -70q76 0 134.5 43.5t81.5 117.5h375q-32 -225 -195 -363.5t-396 -138.5q-131 0 -245 44.5t-194 122t-126 187.5t-46 236z " />
<glyph unicode="d" horiz-adv-x="1406" d="M55 553q0 258 163.5 423.5t417.5 165.5q151 0 275 -77v440h377v-1505h-282l-36 82q-141 -119 -334 -119q-254 0 -417.5 166t-163.5 424zM440 553q0 -108 70 -180.5t177 -72.5t177.5 72.5t70.5 180.5t-70.5 180.5t-177.5 72.5t-177 -72.5t-70 -180.5z" />
<glyph unicode="e" horiz-adv-x="1312" d="M55 554q0 254 170.5 421t430.5 167q131 0 244 -45t191.5 -122.5t123 -184.5t44.5 -227q0 -52 -7 -100h-822q19 -95 77 -144t149 -49q67 0 119.5 27.5t80.5 76.5h379q-58 -189 -214.5 -299.5t-364.5 -110.5q-170 0 -307.5 76.5t-215.5 211.5t-78 302zM437 674h447 q-51 170 -228 170q-83 0 -139.5 -43.5t-79.5 -126.5z" />
<glyph unicode="f" horiz-adv-x="884" d="M47 789v299h188v106q0 168 91 259.5t265 91.5h266v-292h-168q-43 0 -66.5 -23.5t-23.5 -66.5v-75h260v-299h-248v-789h-381v789h-183z" />
<glyph unicode="g" horiz-adv-x="1384" d="M56 585q0 156 71.5 283t198.5 200t283 73q199 0 349 -128l48 93h258v-983q0 -261 -159.5 -412t-433.5 -151q-235 0 -391 111.5t-194 308.5h368q19 -53 79 -83t134 -30q99 0 165 58t66 154v33q-130 -83 -289 -83q-156 0 -283 72t-198.5 199t-71.5 285zM436 585 q0 -106 66.5 -174t169.5 -68t169 68t66 174q0 105 -66 173t-169 68t-169.5 -68t-66.5 -173z" />
<glyph unicode="h" horiz-adv-x="1320" d="M120 0v1505h381v-472q130 106 295 106q190 0 303.5 -129t113.5 -344v-666h-381v622q0 192 -144 192q-87 0 -137 -58.5t-50 -164.5v-591h-381z" />
<glyph unicode="i" horiz-adv-x="620" d="M120 0v1106h381v-1106h-381zM123 1244v324h375v-324h-375z" />
<glyph unicode="j" horiz-adv-x="645" d="M-87 -85h94q67 0 102 37.5t35 108.5v1045h381v-1076q0 -213 -123.5 -332t-345.5 -119h-143v336zM147 1244v324h375v-324h-375z" />
<glyph unicode="k" horiz-adv-x="1222" d="M136 0v1505h381v-832l264 433h427l-344 -527l379 -579h-449l-277 468v-468h-381z" />
<glyph unicode="l" horiz-adv-x="620" d="M120 0v1505h381v-1505h-381z" />
<glyph unicode="m" horiz-adv-x="1923" d="M120 0v1106h268l54 -119q61 71 145 111.5t178 40.5q100 0 182.5 -43t134.5 -120q60 76 149 119.5t191 43.5q177 0 285.5 -124.5t108.5 -320.5v-694h-381v647q0 171 -123 171q-158 0 -158 -212v-606h-371v647q0 171 -122 171q-77 0 -118.5 -54.5t-41.5 -157.5v-606h-381z " />
<glyph unicode="n" horiz-adv-x="1320" d="M120 0v1106h267l52 -114q62 70 152.5 108.5t196.5 38.5q193 0 309 -127t116 -338v-674h-381v622q0 192 -144 192q-89 0 -138 -58.5t-49 -164.5v-591h-381z" />
<glyph unicode="o" horiz-adv-x="1351" d="M55 553q0 257 174.5 423t445.5 166q177 0 319 -75t222 -210t80 -304t-80 -303.5t-222 -210t-319 -75.5q-178 0 -320 75.5t-221 210t-79 303.5zM437 553q0 -109 66.5 -178t171.5 -69t172 69t67 178t-67.5 178t-171.5 69q-105 0 -171.5 -69t-66.5 -178z" />
<glyph unicode="p" horiz-adv-x="1400" d="M120 -399v1505h259l48 -88q143 124 339 124q254 0 417 -165.5t163 -423.5q0 -170 -74 -305t-206.5 -210t-299.5 -75q-149 0 -270 73v-435h-376zM467 553q0 -109 70.5 -181t177.5 -72t177.5 72t70.5 181t-70.5 181t-177.5 72t-177.5 -72t-70.5 -181z" />
<glyph unicode="q" horiz-adv-x="1400" d="M55 553q0 258 163 423.5t417 165.5q196 0 339 -124l49 88h259v-1505h-377v435q-121 -73 -270 -73q-167 0 -299.5 75t-206.5 210t-74 305zM439 553q0 -108 70.5 -180.5t176.5 -72.5q107 0 177.5 72.5t70.5 180.5t-70.5 180.5t-177.5 72.5t-177 -72.5t-70 -180.5z" />
<glyph unicode="r" horiz-adv-x="864" d="M120 0v1106h255l59 -123q58 67 131.5 97.5t173.5 30.5h101v-348h-148q-101 0 -146 -47.5t-45 -153.5v-562h-381z" />
<glyph unicode="s" horiz-adv-x="1093" d="M58 363h367q0 -58 36 -88.5t93 -30.5q45 0 76.5 22.5t31.5 63.5q0 43 -46.5 63.5t-143.5 36.5q-44 7 -76.5 14t-77 20.5t-76 29.5t-65.5 42.5t-55.5 59t-35 79t-13.5 102.5q0 166 130 265.5t343 99.5q210 0 337.5 -102.5t130.5 -271.5h-357q0 52 -31 78t-85 26 q-46 0 -74 -22t-28 -60q0 -18 10 -32t24.5 -23t41 -16.5t48.5 -12t59 -11.5q4 -1 6 -1h1h1l1 -1h1h1h1h1q157 -28 229 -62q171 -81 171 -285q0 -173 -134 -277.5t-355 -104.5q-224 0 -355 108.5t-133 290.5z" />
<glyph unicode="t" horiz-adv-x="923" d="M8 813v89l495 527h79v-323h278v-293h-269v-352q0 -59 34 -93t94 -34h147v-334h-262q-184 0 -289 105.5t-105 289.5v418h-202z" />
<glyph unicode="u" horiz-adv-x="1300" d="M105 475v631h381v-615q0 -87 44 -136t121 -49t120 49t43 136v615h381v-631q0 -231 -149 -371t-395 -140t-396 140t-150 371z" />
<glyph unicode="v" horiz-adv-x="1243" d="M1 1106h417l209 -655l207 655h407l-445 -1106h-345z" />
<glyph unicode="w" horiz-adv-x="1775" d="M5 1106h399l167 -581l262 577h102l276 -582l165 586h389l-352 -1106h-307l-219 495l-214 -495h-307z" />
<glyph unicode="x" horiz-adv-x="1187" d="M-13 0l367 574l-340 532h420l160 -279l167 279h415l-343 -522l368 -584h-426l-182 328l-185 -328h-421z" />
<glyph unicode="y" horiz-adv-x="1269" d="M0 1106h413l235 -609l219 609h409l-463 -1057q-77 -174 -152.5 -271.5t-175.5 -143.5t-244 -46h-131v328h105q108 0 155 35t87 140z" />
<glyph unicode="z" horiz-adv-x="1056" d="M42 0v57l423 713h-386v336h913v-62l-417 -705h422v-339h-955z" />
<glyph unicode="{" horiz-adv-x="796" d="M55 501v266h42q47 0 80 33t33 80v477q0 110 79 188t189 78h238v-300h-152v-425q0 -91 -45.5 -162.5t-121.5 -100.5q75 -29 119 -100t44 -163v-420h156v-302h-238q-111 0 -189.5 78t-78.5 190v472q0 46 -33 78.5t-80 32.5h-42z" />
<glyph unicode="|" horiz-adv-x="649" d="M143 -389v2109h362v-2109h-362z" />
<glyph unicode="}" horiz-adv-x="796" d="M80 -48h156v420q0 92 44 163t119 100q-76 29 -121.5 100.5t-45.5 162.5v425h-152v300h238q110 0 189 -78t79 -188v-477q0 -47 33 -80t80 -33h42v-266h-42q-47 0 -80 -32.5t-33 -78.5v-472q0 -112 -78.5 -190t-189.5 -78h-238v302z" />
<glyph unicode="~" horiz-adv-x="1206" d="M100 461v37q0 168 85.5 267t240.5 99q52 0 100.5 -14.5t71 -27t64.5 -39.5q28 -18 40.5 -25t34.5 -15t42 -8q38 0 60 25t22 69v33h255v-37q0 -172 -86.5 -270t-236.5 -98q-53 0 -103.5 14t-77.5 28t-67 39q-73 42 -107 42q-36 0 -59.5 -25t-23.5 -65v-29h-255z" />
<glyph unicode="&#xa1;" horiz-adv-x="624" d="M129 752v354h369v-354h-369zM135 -369v998h356v-998h-356z" />
<glyph unicode="&#xa2;" horiz-adv-x="1267" d="M74 529q0 201 115.5 345.5t307.5 189.5v171h306v-170q165 -39 273.5 -156.5t133.5 -287.5h-355q-23 62 -78.5 99t-123.5 37q-94 0 -154 -63.5t-60 -165.5q0 -100 60.5 -165t153.5 -65q71 0 125.5 40t77.5 107h358q-25 -173 -135.5 -293.5t-275.5 -159.5v-150h-306v151 q-191 45 -307 190.5t-116 345.5z" />
<glyph unicode="&#xa3;" horiz-adv-x="1257" d="M81 0v219l123 56v257h-99v260h99v195q0 188 130 301t346 113q210 0 331.5 -111.5t121.5 -302.5v-31h-328v25q0 63 -34 99t-91 36q-58 0 -93 -36.5t-35 -98.5v-189h246v-260h-246v-242h316v139h313v-429h-1100z" />
<glyph unicode="&#xa4;" horiz-adv-x="1275" d="M70 266l141 144q-52 102 -52 213q0 117 57 223l-139 142l212 213l147 -147q98 46 201 46q107 0 202 -46l146 147l213 -213l-141 -142q57 -106 57 -223q0 -111 -52 -213l145 -146l-214 -212l-144 146q-101 -52 -212 -52t-212 52l-141 -145zM453 625q0 -75 54.5 -130 t129.5 -54t127.5 54.5t52.5 129.5q0 74 -52.5 127.5t-127.5 53.5t-129.5 -52.5t-54.5 -128.5z" />
<glyph unicode="&#xa5;" horiz-adv-x="1423" d="M49 1362h390l271 -490l275 490h390l-465 -743h305v-200h-323v-91h323v-188h-323v-140h-362v140h-323v188h323v91h-323v200h302z" />
<glyph unicode="&#xa6;" horiz-adv-x="649" d="M143 -389v921h362v-921h-362zM143 819v901h362v-901h-362z" />
<glyph unicode="&#xa7;" horiz-adv-x="1107" d="M77 661q0 164 127 262q-80 78 -80 195q0 165 113.5 256t310.5 91q200 0 317.5 -100t117.5 -269h-314q0 48 -35.5 74t-86.5 26q-43 0 -72 -19.5t-29 -53.5q0 -19 11 -35t26 -26.5t45 -21.5t52 -17t63 -16q48 -12 76 -19.5t74.5 -24t75 -33t63 -44t54 -58.5t33 -76 t13.5 -98q0 -158 -123 -261q76 -81 76 -196q0 -164 -114.5 -254.5t-312.5 -90.5q-202 0 -320 98.5t-118 267.5h314q0 -48 36.5 -73.5t88.5 -25.5q44 0 74 19.5t30 53.5q0 19 -11 35t-25.5 26t-45 21t-51.5 16.5l-63 16.5q-37 9 -58.5 14.5t-58.5 17t-60 21.5t-55 26.5 t-52 34t-42 43t-34.5 53.5t-21 65t-8.5 79zM398 678q1 -49 54.5 -78.5t157.5 -54.5q8 -2 26 -8q77 32 74 103q-1 54 -56 84.5t-164 56.5l-7.5 2.5t-6.5 2.5q-37 -15 -58 -43t-20 -65z" />
<glyph unicode="&#xa8;" horiz-adv-x="1288" d="M503 1242v321h382v-321h-382z" />
<glyph unicode="&#xa9;" horiz-adv-x="1701" d="M73 715q0 215 101 386t278.5 266t398.5 95q220 0 398 -95t279 -266t101 -386t-101 -385.5t-278.5 -265t-398.5 -94.5t-398.5 94.5t-278.5 265t-101 385.5zM295 715q0 -239 156 -391t400 -152t400 152t156 391q0 240 -156.5 392.5t-399.5 152.5t-399.5 -152.5 t-156.5 -392.5zM448 718q0 171 113.5 279.5t292.5 108.5q154 0 259.5 -88t126.5 -234h-246q-16 44 -53 69.5t-86 25.5q-67 0 -110.5 -45t-43.5 -116q0 -69 43.5 -114t110.5 -45q50 0 87 27.5t53 74.5h248q-22 -149 -128.5 -240t-259.5 -91q-177 0 -292 110t-115 278z" />
<glyph unicode="&#xaa;" horiz-adv-x="935" d="M60 1113q0 153 99.5 254.5t248.5 101.5q118 0 209 -76l27 58h179v-678h-185l-24 56q-88 -72 -206 -72q-149 0 -248.5 101t-99.5 255zM298 1113q0 -64 42 -106.5t105 -42.5t104.5 42.5t41.5 106.5t-41.5 106.5t-104.5 42.5t-105 -43t-42 -106z" />
<glyph unicode="&#xab;" horiz-adv-x="1482" d="M54 528v37l321 437h424l-328 -455l328 -456h-424zM680 528v37l322 437h423l-328 -455l328 -456h-423z" />
<glyph unicode="&#xac;" horiz-adv-x="1245" d="M89 581v332h1032v-668h-351v336h-681z" />
<glyph unicode="&#xad;" horiz-adv-x="972" d="M112 394v346h750v-346h-750z" />
<glyph unicode="&#xae;" horiz-adv-x="1048" d="M73 1010q0 195 128 323.5t323 128.5t323 -128.5t128 -323.5t-128 -323.5t-323 -128.5t-323 128.5t-128 323.5zM211 1010q0 -136 89 -225t224 -89t224 88.5t89 225.5q0 136 -89 225t-224 89q-137 0 -225 -89t-88 -225zM356 804v419h204q69 0 112 -43.5t43 -112.5 q0 -83 -63 -123l76 -140h-141l-61 115h-37v-115h-133zM489 1028h47q45 0 45 41q0 40 -45 40h-47v-81z" />
<glyph unicode="&#xaf;" horiz-adv-x="1044" d="M179 1259v265h686v-265h-686z" />
<glyph unicode="&#xb0;" horiz-adv-x="796" d="M48 1385q0 139 101.5 237.5t247.5 98.5t249 -98.5t103 -237.5q0 -140 -103 -238t-249 -98t-247.5 98t-101.5 238zM288 1385q0 -46 31.5 -77.5t79.5 -31.5t79.5 31.5t31.5 77.5t-31.5 77.5t-79.5 31.5t-79.5 -31.5t-31.5 -77.5z" />
<glyph unicode="&#xb1;" horiz-adv-x="1181" d="M104 -24v307h975v-307h-975zM110 715v321h309v291h343v-291h309v-321h-309v-276h-343v276h-309z" />
<glyph unicode="&#xb4;" horiz-adv-x="1103" d="M193 1228l117 340h388l-225 -340h-280z" />
<glyph unicode="&#xb6;" horiz-adv-x="1474" d="M52 964q0 203 145 336.5t373 133.5h828v-334h-188v-1278h-324v1278h-147v-1278h-323v698q-164 41 -264 162t-100 282z" />
<glyph unicode="&#xb7;" horiz-adv-x="591" d="M112 559v354h369v-354h-369z" />
<glyph unicode="&#xb8;" horiz-adv-x="978" d="M198 -309h132q29 0 46.5 16t17.5 41t-17.5 41t-46.5 16h-94l-19 25l80 285h177l-52 -182q91 -10 144.5 -62t53.5 -134q0 -95 -73.5 -154t-189.5 -59h-159v167z" />
<glyph unicode="&#xba;" horiz-adv-x="876" d="M60 1113q0 156 106 256t272 100t271.5 -100t105.5 -256t-105.5 -255.5t-271.5 -99.5t-272 99.5t-106 255.5zM300 1113q0 -62 38.5 -101t99.5 -39q60 0 98.5 39t38.5 101q0 61 -38.5 100.5t-98.5 39.5q-61 0 -99.5 -39.5t-38.5 -100.5z" />
<glyph unicode="&#xbb;" horiz-adv-x="1482" d="M58 91l328 456l-328 455h424l321 -437v-37l-321 -437h-424zM684 91l328 456l-328 455h424l321 -437v-37l-321 -437h-424z" />
<glyph unicode="&#xbc;" horiz-adv-x="1583" d="M39 1233v201h377v-825h-247v624h-130zM159 -57l827 1556h259l-828 -1556h-258zM841 143v53l263 627h236l-200 -486h117l57 186h153v-186h76v-194h-76v-144h-227v144h-399z" />
<glyph unicode="&#xbd;" horiz-adv-x="1626" d="M39 1233v201h377v-825h-247v624h-130zM159 -57l827 1556h259l-828 -1556h-258zM935 0v66q172 198 247.5 291t102 138.5t26.5 79.5q0 32 -17 51.5t-46 19.5q-33 0 -52 -20.5t-19 -56.5v-20h-230v15q0 134 79 209.5t221 75.5q133 0 217.5 -73t84.5 -190q0 -79 -46 -159 t-164 -219h226v-208h-630z" />
<glyph unicode="&#xbe;" horiz-adv-x="1787" d="M48 879h216q2 -43 27.5 -69.5t67.5 -26.5q41 0 68 28t27 72t-28 70t-76 26h-133v48l128 211h-274v196h577v-39l-165 -263q88 -23 140 -90.5t52 -161.5q0 -127 -89 -208t-228 -81q-136 0 -221 79.5t-89 208.5zM362 -57l827 1556h259l-828 -1556h-258zM1044 143v53l264 627 h235l-200 -486h117l58 186h152v-186h76v-194h-76v-144h-227v144h-399z" />
<glyph unicode="&#xbf;" horiz-adv-x="1128" d="M62 48q0 56 13 105t30 81.5t49 67t53 52.5t60 48t57 45.5t43 42.5t35 56t10 64v39h356v-39q0 -67 -14 -123.5t-31.5 -92t-51 -71.5t-54.5 -53t-60 -45q-33 -24 -50 -37.5t-38 -35.5t-29.5 -46t-8.5 -54q0 -64 41.5 -103t101.5 -39q62 0 107 40t45 109h358 q0 -148 -70 -256t-184 -160.5t-257 -52.5q-222 0 -366.5 126t-144.5 332zM406 752v354h370v-354h-370z" />
<glyph unicode="&#xc0;" d="M0 0l563 1434h386l575 -1434h-435l-79 233h-508l-79 -233h-423zM366 1878h397l145 -318h-279zM598 542h316l-159 444z" />
<glyph unicode="&#xc1;" d="M0 0l563 1434h386l575 -1434h-435l-79 233h-508l-79 -233h-423zM598 542h316l-159 444zM601 1560l145 318h398l-264 -318h-279z" />
<glyph unicode="&#xc2;" d="M0 0l563 1434h386l575 -1434h-435l-79 233h-508l-79 -233h-423zM310 1560l243 318h401l244 -318h-296l-148 145l-146 -145h-298zM598 542h316l-159 444z" />
<glyph unicode="&#xc3;" d="M0 0l563 1434h386l575 -1434h-435l-79 233h-508l-79 -233h-423zM342 1559v25q0 139 68.5 220t194.5 81q88 0 191 -65q62 -40 95 -40q31 0 48.5 20t17.5 55v24h208v-27q0 -140 -70 -220t-192 -80q-12 0 -25 1.5t-22.5 2.5t-22.5 5t-20.5 5.5t-21 7.5l-18 8t-19 9t-17 8.5 t-17 9.5t-15.5 8q-65 35 -89 36q-29 1 -48 -20t-19 -54v-20h-207zM598 542h316l-159 444z" />
<glyph unicode="&#xc4;" d="M0 0l563 1434h386l575 -1434h-435l-79 233h-508l-79 -233h-423zM319 1560v318h351v-318h-351zM598 542h316l-159 444zM841 1560v318h350v-318h-350z" />
<glyph unicode="&#xc5;" d="M0 0l563 1434h386l575 -1434h-435l-79 233h-508l-79 -233h-423zM465 1778q0 122 81 198t208 76t207.5 -76t80.5 -198t-80.5 -198t-207.5 -76t-208 76t-81 198zM598 542h316l-159 444zM642 1778q0 -47 31.5 -78t80.5 -31q48 0 80.5 31t32.5 78t-32.5 77.5t-80.5 30.5 q-49 0 -80.5 -30.5t-31.5 -77.5z" />
<glyph unicode="&#xc6;" horiz-adv-x="1941" d="M-43 0l824 1434h1055v-341h-510v-212h456v-324h-456v-214h527v-343h-908v231h-423l-129 -231h-436zM692 538h253v453z" />
<glyph unicode="&#xc7;" horiz-adv-x="1605" d="M64 716q0 213 99 385.5t273.5 270.5t389.5 98q282 0 481.5 -169.5t243.5 -442.5h-400q-37 111 -124 177t-200 66q-152 0 -252 -109t-100 -276q0 -166 100 -274t252 -108q119 0 206.5 71.5t117.5 191.5h404q-37 -260 -212 -431t-429 -198l-8 -31q87 -19 135.5 -72 t48.5 -132q0 -94 -73.5 -155.5t-195.5 -61.5h-187v173h155q30 0 48.5 16.5t18.5 42.5t-18.5 42t-48.5 16h-106l-16 20l36 147q-185 27 -330.5 129.5t-227 262.5t-81.5 351z" />
<glyph unicode="&#xc8;" horiz-adv-x="1161" d="M139 0v1434h917v-342h-524v-211h471v-324h-471v-214h541v-343h-934zM212 1878h398l145 -318h-280z" />
<glyph unicode="&#xc9;" horiz-adv-x="1161" d="M139 0v1434h917v-342h-524v-211h471v-324h-471v-214h541v-343h-934zM448 1560l144 318h398l-263 -318h-279z" />
<glyph unicode="&#xca;" horiz-adv-x="1161" d="M139 0v1434h917v-342h-524v-211h471v-324h-471v-214h541v-343h-934zM157 1560l243 318h401l244 -318h-297l-148 145l-146 -145h-297z" />
<glyph unicode="&#xcb;" horiz-adv-x="1161" d="M139 0v1434h917v-342h-524v-211h471v-324h-471v-214h541v-343h-934zM166 1560v318h350v-318h-350zM688 1560v318h350v-318h-350z" />
<glyph unicode="&#xcc;" horiz-adv-x="677" d="M18 1878h390l73 -318h-286zM139 0v1434h400v-1434h-400z" />
<glyph unicode="&#xcd;" horiz-adv-x="677" d="M139 0v1434h400v-1434h-400zM192 1560l114 318h389l-228 -318h-275z" />
<glyph unicode="&#xce;" horiz-adv-x="677" d="M-72 1560l222 318h376l223 -318h-289l-122 139l-121 -139h-289zM139 0v1434h400v-1434h-400z" />
<glyph unicode="&#xcf;" horiz-adv-x="677" d="M-78 1560v318h348v-318h-348zM139 0v1434h400v-1434h-400zM405 1560v318h347v-318h-347z" />
<glyph unicode="&#xd0;" horiz-adv-x="1599" d="M41 560v316h171v558h581q214 0 383 -91t263 -254.5t94 -370.5t-94 -370.5t-263 -255.5t-383 -92h-581v560h-171zM609 362h165q159 0 256.5 98.5t97.5 257.5q0 160 -97.5 257t-256.5 97h-165v-196h238v-316h-238v-198z" />
<glyph unicode="&#xd1;" horiz-adv-x="1556" d="M139 0v1434h345l551 -753v753h382v-1434h-326l-570 778v-778h-382zM370 1559v25q0 139 68.5 220t194.5 81q88 0 191 -65q62 -40 95 -40q31 0 48.5 20t17.5 55v24h208v-27q0 -140 -70 -220t-192 -80q-12 0 -25 1.5t-22.5 2.5t-22.5 5t-20.5 5.5t-21 7.5l-18 8t-19 9 t-17 8.5t-17 9.5t-15.5 8q-65 35 -89 36q-29 1 -48 -20t-19 -54v-20h-207z" />
<glyph unicode="&#xd2;" horiz-adv-x="1703" d="M64 717q0 216 100.5 388t280.5 268.5t408 96.5q170 0 316.5 -56.5t250 -155t162.5 -239t59 -302.5t-59 -302.5t-162.5 -239t-250 -155t-316.5 -56.5q-228 0 -408 96.5t-280.5 268.5t-100.5 388zM465 1878h397l145 -318h-279zM475 717q0 -167 107 -276.5t271 -109.5 t270 109t106 277t-106 276.5t-270 108.5t-271 -109t-107 -276z" />
<glyph unicode="&#xd3;" horiz-adv-x="1703" d="M64 717q0 216 100.5 388t280.5 268.5t408 96.5q170 0 316.5 -56.5t250 -155t162.5 -239t59 -302.5t-59 -302.5t-162.5 -239t-250 -155t-316.5 -56.5q-228 0 -408 96.5t-280.5 268.5t-100.5 388zM475 717q0 -167 107 -276.5t271 -109.5t270 109t106 277t-106 276.5 t-270 108.5t-271 -109t-107 -276zM700 1560l145 318h398l-264 -318h-279z" />
<glyph unicode="&#xd4;" horiz-adv-x="1703" d="M64 717q0 216 100.5 388t280.5 268.5t408 96.5q170 0 316.5 -56.5t250 -155t162.5 -239t59 -302.5t-59 -302.5t-162.5 -239t-250 -155t-316.5 -56.5q-228 0 -408 96.5t-280.5 268.5t-100.5 388zM409 1560l243 318h401l244 -318h-296l-148 145l-146 -145h-298zM475 717 q0 -167 107 -276.5t271 -109.5t270 109t106 277t-106 276.5t-270 108.5t-271 -109t-107 -276z" />
<glyph unicode="&#xd5;" horiz-adv-x="1703" d="M64 717q0 216 100.5 388t280.5 268.5t408 96.5q170 0 316.5 -56.5t250 -155t162.5 -239t59 -302.5t-59 -302.5t-162.5 -239t-250 -155t-316.5 -56.5q-228 0 -408 96.5t-280.5 268.5t-100.5 388zM441 1559v25q0 139 68.5 220t194.5 81q88 0 191 -65q62 -40 95 -40 q31 0 48.5 20t17.5 55v24h208v-27q0 -140 -70 -220t-192 -80q-12 0 -25 1.5t-22.5 2.5t-22.5 5t-20.5 5.5t-21 7.5l-18 8t-19 9t-17 8.5t-17 9.5t-15.5 8q-65 35 -89 36q-29 1 -48 -20t-19 -54v-20h-207zM475 717q0 -167 107 -276.5t271 -109.5t270 109t106 277t-106 276.5 t-270 108.5t-271 -109t-107 -276z" />
<glyph unicode="&#xd6;" horiz-adv-x="1703" d="M64 717q0 216 100.5 388t280.5 268.5t408 96.5q170 0 316.5 -56.5t250 -155t162.5 -239t59 -302.5t-59 -302.5t-162.5 -239t-250 -155t-316.5 -56.5q-228 0 -408 96.5t-280.5 268.5t-100.5 388zM418 1560v318h351v-318h-351zM475 717q0 -167 107 -276.5t271 -109.5 t270 109t106 277t-106 276.5t-270 108.5t-271 -109t-107 -276zM940 1560v318h350v-318h-350z" />
<glyph unicode="&#xd7;" horiz-adv-x="1155" d="M73 396l270 272l-270 271l239 235l266 -268l265 268l239 -235l-269 -271l269 -272l-236 -233l-268 269l-268 -269z" />
<glyph unicode="&#xd8;" horiz-adv-x="1742" d="M64 726q0 214 100.5 384t280 265t406.5 95q126 0 251 -37l70 118h384l-165 -267q133 -105 209.5 -258t76.5 -324q0 -213 -99.5 -381.5t-278.5 -262.5t-406 -94q-130 0 -258 37l-75 -121h-384l171 271q-131 104 -207 256t-76 319zM462 723q0 -143 94 -250l373 637 q-40 8 -77 8q-170 0 -280 -111.5t-110 -283.5zM810 323q45 -9 78 -9q170 0 280.5 111t110.5 283q0 145 -96 254z" />
<glyph unicode="&#xd9;" horiz-adv-x="1499" d="M123 555v879h404v-872q0 -105 61.5 -168t160.5 -63t160.5 63t61.5 168v872h404v-879q0 -263 -175.5 -427t-450.5 -164t-450.5 164t-175.5 427zM360 1878h398l145 -318h-279z" />
<glyph unicode="&#xda;" horiz-adv-x="1499" d="M123 555v879h404v-872q0 -105 61.5 -168t160.5 -63t160.5 63t61.5 168v872h404v-879q0 -263 -175.5 -427t-450.5 -164t-450.5 164t-175.5 427zM596 1560l145 318h398l-264 -318h-279z" />
<glyph unicode="&#xdb;" horiz-adv-x="1499" d="M123 555v879h404v-872q0 -105 61.5 -168t160.5 -63t160.5 63t61.5 168v872h404v-879q0 -263 -175.5 -427t-450.5 -164t-450.5 164t-175.5 427zM305 1560l243 318h401l244 -318h-296l-149 145l-145 -145h-298z" />
<glyph unicode="&#xdc;" horiz-adv-x="1499" d="M123 555v879h404v-872q0 -105 61.5 -168t160.5 -63t160.5 63t61.5 168v872h404v-879q0 -263 -175.5 -427t-450.5 -164t-450.5 164t-175.5 427zM314 1560v318h350v-318h-350zM836 1560v318h350v-318h-350z" />
<glyph unicode="&#xdd;" horiz-adv-x="1431" d="M17 1434h438l262 -518l262 518h438l-501 -873v-561h-402v562zM564 1560l144 318h398l-263 -318h-279z" />
<glyph unicode="&#xde;" horiz-adv-x="1337" d="M139 0v1434h395v-196h215q230 0 380.5 -147t150.5 -372q0 -226 -150.5 -373.5t-380.5 -147.5h-215v-198h-395zM534 544h168q77 0 124.5 48.5t47.5 125.5t-47.5 125.5t-124.5 48.5h-168v-348z" />
<glyph unicode="&#xdf;" horiz-adv-x="1312" d="M120 0v977q0 262 147 410.5t405 148.5q233 0 379 -121t146 -315q0 -184 -155 -304q214 -116 214 -347q0 -205 -154.5 -327t-412.5 -122h-90v319h88q91 0 141.5 41t50.5 115t-52 115.5t-145 41.5h-73v296h56q82 0 132.5 43t50.5 111q0 67 -47.5 109t-122.5 42 q-84 0 -130.5 -56.5t-46.5 -151.5v-1025h-381z" />
<glyph unicode="&#xe0;" horiz-adv-x="1417" d="M56 554q0 257 163 421.5t417 164.5q195 0 338 -118l39 85h284v-1106h-295l-32 78q-143 -115 -334 -115q-167 0 -299.5 75.5t-206.5 210t-74 304.5zM355 1568h389l116 -340h-280zM440 553q0 -108 70 -180t177 -72t177.5 72t70.5 180t-70.5 180t-177.5 72t-177 -71.5 t-70 -180.5z" />
<glyph unicode="&#xe1;" horiz-adv-x="1417" d="M56 554q0 257 163 421.5t417 164.5q195 0 338 -118l39 85h284v-1106h-295l-32 78q-143 -115 -334 -115q-167 0 -299.5 75.5t-206.5 210t-74 304.5zM440 553q0 -108 70 -180t177 -72t177.5 72t70.5 180t-70.5 180t-177.5 72t-177 -71.5t-70 -180.5zM535 1228l116 340h388 l-225 -340h-279z" />
<glyph unicode="&#xe2;" horiz-adv-x="1417" d="M56 554q0 257 163 421.5t417 164.5q195 0 338 -118l39 85h284v-1106h-295l-32 78q-143 -115 -334 -115q-167 0 -299.5 75.5t-206.5 210t-74 304.5zM259 1228l243 340h402l245 -340h-297l-149 156l-146 -156h-298zM440 553q0 -108 70 -180t177 -72t177.5 72t70.5 180 t-70.5 180t-177.5 72t-177 -71.5t-70 -180.5z" />
<glyph unicode="&#xe3;" horiz-adv-x="1417" d="M56 554q0 257 163 421.5t417 164.5q195 0 338 -118l39 85h284v-1106h-295l-32 78q-143 -115 -334 -115q-167 0 -299.5 75.5t-206.5 210t-74 304.5zM292 1239v25q0 137 69 217t195 80q89 0 190 -64q62 -40 95 -40q31 0 48.5 20t17.5 55v23h208v-26q0 -139 -69.5 -218 t-191.5 -79q-39 0 -80.5 12.5t-59 21.5t-59.5 31q-63 34 -89 34q-29 0 -48 -20t-19 -52v-20h-207zM439 553q0 -108 70.5 -180t177.5 -72t177.5 72t70.5 180t-70.5 180t-177.5 72q-108 0 -178 -72t-70 -180z" />
<glyph unicode="&#xe4;" horiz-adv-x="1417" d="M56 554q0 257 163 421.5t417 164.5q195 0 338 -118l39 85h284v-1106h-294l-33 78q-143 -115 -334 -115q-167 0 -299.5 75.5t-206.5 210t-74 304.5zM267 1242v321h345v-321h-345zM440 553q0 -108 70 -180t177 -72t177.5 72t70.5 180t-70.5 180t-177.5 72t-177 -71.5 t-70 -180.5zM788 1242v321h345v-321h-345z" />
<glyph unicode="&#xe5;" horiz-adv-x="1417" d="M56 554q0 257 163 421.5t417 164.5q195 0 338 -118l39 85h284v-1106h-294l-33 78q-143 -115 -334 -115q-167 0 -299.5 75.5t-206.5 210t-74 304.5zM420 1448q0 115 75.5 186t195.5 71t196 -71t76 -186t-76 -186t-196 -71t-195.5 71t-75.5 186zM440 553q0 -108 70 -180 t177 -72t177.5 72t70.5 180t-70.5 180t-177.5 72t-177 -71.5t-70 -180.5zM586 1448q0 -44 29.5 -73t75.5 -29t76 29t30 73t-30 73t-76 29t-75.5 -29t-29.5 -73z" />
<glyph unicode="&#xe6;" horiz-adv-x="2183" d="M56 552q0 254 158.5 420.5t394.5 166.5q205 0 350 -137l16 104h203l15 -100q143 134 358 134q248 0 413.5 -167t165.5 -414q0 -48 -7 -98h-832q20 -91 80.5 -138.5t153.5 -47.5q69 0 123 26t81 73h379q-57 -184 -209 -296t-348 -112q-213 0 -354 130l-12 -96h-218l-13 97 q-144 -133 -345 -133q-155 0 -282 77t-199 212t-72 299zM439 552q0 -107 70 -179t176 -72t176 72t70 179q0 108 -70 179.5t-176 71.5t-176 -71.5t-70 -179.5zM1298 675h458q-25 82 -84.5 125.5t-145.5 43.5t-144.5 -44t-83.5 -125z" />
<glyph unicode="&#xe7;" horiz-adv-x="1302" d="M56 554q0 256 172 421t440 165q233 0 393.5 -134.5t192.5 -355.5h-371q-24 68 -83 108.5t-133 40.5q-101 0 -165 -69t-64 -177t64.5 -178t164.5 -70q76 0 134.5 43.5t81.5 117.5h375q-31 -213 -179 -349.5t-364 -151.5l-9 -32q91 -10 144.5 -62t53.5 -134 q0 -95 -73.5 -154t-189.5 -59h-159v167h132q29 0 46.5 16t17.5 41t-17.5 41t-46.5 16h-94l-19 25l40 145q-217 38 -351 196.5t-134 382.5z" />
<glyph unicode="&#xe8;" horiz-adv-x="1312" d="M55 554q0 254 170.5 421t430.5 167q131 0 244 -45t191.5 -122.5t123 -184.5t44.5 -227q0 -46 -8 -100h-821q19 -95 77 -144t149 -49q67 0 119.5 27.5t80.5 76.5h379q-58 -189 -214.5 -299.5t-364.5 -110.5q-170 0 -307.5 76.5t-215.5 211.5t-78 302zM310 1568h389 l116 -340h-280zM437 674h447q-51 170 -228 170q-83 0 -139.5 -43.5t-79.5 -126.5z" />
<glyph unicode="&#xe9;" horiz-adv-x="1312" d="M55 554q0 254 170.5 421t430.5 167q131 0 244 -45t191.5 -122.5t123 -184.5t44.5 -227q0 -46 -8 -100h-821q19 -95 77 -144t149 -49q67 0 119.5 27.5t80.5 76.5h379q-58 -189 -214.5 -299.5t-364.5 -110.5q-170 0 -307.5 76.5t-215.5 211.5t-78 302zM437 673h447 q-25 83 -83.5 127t-144.5 44q-83 0 -139.5 -44t-79.5 -127zM490 1228l116 340h389l-226 -340h-279z" />
<glyph unicode="&#xea;" horiz-adv-x="1312" d="M55 554q0 254 170.5 421t430.5 167q131 0 244 -45t191.5 -122.5t123 -184.5t44.5 -227q0 -46 -8 -100h-821q19 -95 77 -144t149 -49q67 0 119.5 27.5t80.5 76.5h379q-58 -189 -214.5 -299.5t-364.5 -110.5q-170 0 -307.5 76.5t-215.5 211.5t-78 302zM215 1228l243 340 h401l245 -340h-297l-149 156l-146 -156h-297zM437 673h447q-25 83 -83.5 127t-144.5 44q-83 0 -139.5 -44t-79.5 -127z" />
<glyph unicode="&#xeb;" horiz-adv-x="1312" d="M55 554q0 254 170.5 421t430.5 167q131 0 244 -45t191.5 -122.5t123 -184.5t44.5 -227q0 -52 -7 -100h-822q19 -95 77 -144t149 -49q67 0 119.5 27.5t80.5 76.5h379q-58 -189 -214.5 -299.5t-364.5 -110.5q-170 0 -307.5 76.5t-215.5 211.5t-78 302zM222 1242v321h345 v-321h-345zM437 674h447q-51 170 -228 170q-83 0 -139.5 -43.5t-79.5 -126.5zM743 1242v321h345v-321h-345z" />
<glyph unicode="&#xec;" horiz-adv-x="620" d="M-8 1568h390l73 -340h-286zM120 0v1106h381v-1106h-381z" />
<glyph unicode="&#xed;" horiz-adv-x="620" d="M120 0v1106h381v-1106h-381zM152 1228l73 340h390l-177 -340h-286z" />
<glyph unicode="&#xee;" horiz-adv-x="620" d="M-101 1228l221 340h378l224 -340h-290l-123 149l-121 -149h-289zM120 0v1106h381v-1106h-381z" />
<glyph unicode="&#xef;" horiz-adv-x="620" d="M-89 1237v331h346v-331h-346zM120 0v1106h381v-1106h-381zM390 1237v331h346v-331h-346z" />
<glyph unicode="&#xf0;" horiz-adv-x="1347" d="M55 536q0 232 153 384t387 152q185 0 321 -122q-29 216 -247 317l-178 -178l-126 118l116 116q-88 15 -185 15v296q242 0 429 -68l138 138l126 -117l-100 -100q188 -118 286 -323.5t98 -489.5q0 -327 -166 -518.5t-449 -191.5q-268 0 -435.5 158.5t-167.5 413.5zM424 537 q0 -102 66.5 -169t167.5 -67t167 67t66 169q0 103 -65.5 170t-167.5 67q-101 0 -167.5 -67.5t-66.5 -169.5z" />
<glyph unicode="&#xf1;" horiz-adv-x="1320" d="M120 0v1106h267l52 -114q62 70 152.5 108.5t196.5 38.5q193 0 309 -127t116 -338v-674h-381v622q0 192 -144 192q-89 0 -138 -58.5t-49 -164.5v-591h-381zM265 1239v25q0 137 69 217t195 80q89 0 190 -64q62 -40 95 -40q31 0 48.5 20t17.5 55v23h208v-26q0 -139 -70 -218 t-192 -79q-12 0 -25 1.5t-22.5 2.5t-22.5 5t-20.5 5.5t-21 7.5l-18 8t-19 9t-17 8.5t-17 9.5t-15.5 8q-63 34 -89 34q-29 0 -48 -20t-19 -52v-20h-207z" />
<glyph unicode="&#xf2;" horiz-adv-x="1351" d="M55 553q0 257 174.5 423t445.5 166q177 0 319 -75t222 -210t80 -304t-80 -303.5t-222 -210t-319 -75.5q-178 0 -320 75.5t-221 210t-79 303.5zM329 1568h388l116 -340h-279zM437 553q0 -109 66.5 -178t171.5 -69t172 69t67 178t-67.5 178t-171.5 69q-105 0 -171.5 -69 t-66.5 -178z" />
<glyph unicode="&#xf3;" horiz-adv-x="1351" d="M55 553q0 257 174.5 423t445.5 166q177 0 319 -75t222 -210t80 -304t-80 -303.5t-222 -210t-319 -75.5q-178 0 -320 75.5t-221 210t-79 303.5zM437 553q0 -109 66.5 -178t171.5 -69t172 69t67 178t-67.5 178t-171.5 69q-105 0 -171.5 -69t-66.5 -178zM508 1228l116 340 h389l-225 -340h-280z" />
<glyph unicode="&#xf4;" horiz-adv-x="1351" d="M55 553q0 257 174.5 423t445.5 166q177 0 319 -75t222 -210t80 -304t-80 -303.5t-222 -210t-319 -75.5q-178 0 -320 75.5t-221 210t-79 303.5zM233 1228l243 340h401l245 -340h-297l-149 156l-146 -156h-297zM437 553q0 -109 66.5 -178t171.5 -69t172 69t67 178 t-67.5 178t-171.5 69q-105 0 -171.5 -69t-66.5 -178z" />
<glyph unicode="&#xf5;" horiz-adv-x="1351" d="M55 553q0 257 174.5 423t445.5 166q133 0 248 -44t197 -121.5t128.5 -187t46.5 -236.5q0 -256 -175.5 -422.5t-444.5 -166.5q-178 0 -320 75.5t-221 210t-79 303.5zM265 1239v25q0 137 69 217t195 80q89 0 190 -64q62 -40 95 -40q31 0 48.5 20t17.5 55v23h209v-26 q0 -139 -70 -218t-192 -79q-12 0 -25 1.5t-22.5 2.5t-22.5 5t-20.5 5.5t-21 7.5l-18 8t-19 9t-17 8.5t-17 9.5t-15.5 8q-63 34 -89 34q-29 0 -48 -20t-19 -52v-20h-208zM437 553q0 -109 66.5 -178t171.5 -69t172 69t67 178t-67.5 178t-171.5 69q-105 0 -171.5 -69 t-66.5 -178z" />
<glyph unicode="&#xf6;" horiz-adv-x="1351" d="M55 553q0 257 174.5 423t445.5 166q177 0 319 -75t222 -210t80 -304t-80 -303.5t-222 -210t-319 -75.5q-178 0 -320 75.5t-221 210t-79 303.5zM241 1242v321h344v-321h-344zM437 553q0 -109 66.5 -178t171.5 -69t172 69t67 178t-67.5 178t-171.5 69q-105 0 -171.5 -69 t-66.5 -178zM762 1242v321h344v-321h-344z" />
<glyph unicode="&#xf7;" horiz-adv-x="1105" d="M65 516v303h975v-303h-975zM375 244q0 74 51.5 125.5t126.5 51.5q74 0 125.5 -51.5t51.5 -125.5q0 -75 -51 -126.5t-126 -51.5t-126.5 51.5t-51.5 126.5zM375 1092q0 74 51.5 125.5t126.5 51.5t126 -51.5t51 -125.5q0 -75 -51 -126.5t-126 -51.5t-126.5 51.5t-51.5 126.5 z" />
<glyph unicode="&#xf8;" horiz-adv-x="1372" d="M57 557q0 126 46 234.5t127 185t196 120t248 43.5q96 0 177 -22l62 113h287l-118 -218q111 -79 172.5 -199t61.5 -267q0 -168 -78.5 -301.5t-219 -207.5t-318.5 -74q-97 0 -189 25l-64 -114h-288l125 220q-107 79 -167 198t-60 264zM419 557q0 -96 55 -162l232 412 q-20 2 -32 2q-113 0 -184 -70.5t-71 -181.5zM663 297q24 -2 37 -2q112 0 182.5 70.5t70.5 181.5q0 98 -57 166z" />
<glyph unicode="&#xf9;" horiz-adv-x="1300" d="M105 475v631h381v-615q0 -87 44 -136t121 -49t120 49t43 136v615h381v-631q0 -231 -149 -371t-395 -140t-396 140t-150 371zM305 1568h389l116 -340h-280z" />
<glyph unicode="&#xfa;" horiz-adv-x="1300" d="M105 475v631h381v-615q0 -87 44 -136t121 -49t120 49t43 136v615h381v-631q0 -231 -149 -371t-395 -140t-396 140t-150 371zM485 1228l116 340h388l-225 -340h-279z" />
<glyph unicode="&#xfb;" horiz-adv-x="1300" d="M105 475v631h381v-615q0 -87 44 -136t121 -49t120 49t43 136v615h381v-631q0 -231 -149 -371t-395 -140t-396 140t-150 371zM209 1228l243 340h402l245 -340h-297l-149 156l-146 -156h-298z" />
<glyph unicode="&#xfc;" horiz-adv-x="1300" d="M105 475v631h381v-615q0 -87 44 -136t121 -49t120 49t43 136v615h381v-631q0 -231 -149 -371t-395 -140t-396 140t-150 371zM217 1242v321h345v-321h-345zM738 1242v321h345v-321h-345z" />
<glyph unicode="&#xfd;" horiz-adv-x="1269" d="M0 1106h413l235 -609l219 609h409l-463 -1057q-77 -174 -152.5 -271.5t-175.5 -143.5t-244 -46h-131v328h105q108 0 155 35t87 140zM475 1228l116 340h388l-225 -340h-279z" />
<glyph unicode="&#xfe;" horiz-adv-x="1404" d="M120 -399v1898h376v-437q123 78 277 78q251 0 413.5 -166t162.5 -422t-161.5 -422.5t-409.5 -166.5q-156 0 -282 79v-441h-376zM471 552q0 -108 70.5 -180t177.5 -72q106 0 176.5 72t70.5 180t-70 180t-177 72t-177.5 -72t-70.5 -180z" />
<glyph unicode="&#xff;" horiz-adv-x="1269" d="M0 1106h413l235 -609l219 609h409l-463 -1057q-77 -174 -152.5 -271.5t-175.5 -143.5t-244 -46h-131v328h105q108 0 155 35t87 140zM207 1242v321h344v-321h-344zM728 1242v321h344v-321h-344z" />
<glyph unicode="&#x152;" horiz-adv-x="1988" d="M64 718q0 214 96.5 385.5t267.5 268.5t385 97q127 0 244 -35h826v-342h-511v-211h458v-324h-458v-214h529v-343h-844q-119 -36 -244 -36q-157 0 -295 56t-238 154.5t-158 239.5t-58 304zM475 719q0 -180 106 -282t281 -102q61 0 124 10v744q-76 16 -133 16 q-163 0 -270.5 -109.5t-107.5 -276.5z" />
<glyph unicode="&#x153;" horiz-adv-x="2152" d="M55 552q0 258 174 423t446 165q258 0 420 -165q159 165 402 165q263 0 432.5 -164.5t169.5 -415.5q0 -45 -8 -98h-824q19 -93 78 -141.5t152 -48.5q67 0 119.5 28t80.5 79h379q-58 -191 -214.5 -303t-364.5 -112q-119 0 -222 43.5t-179 123.5q-78 -80 -186 -123.5 t-235 -43.5q-271 0 -445.5 165.5t-174.5 422.5zM437 552q0 -109 66.5 -178t171.5 -69t172 69t67 178t-67 178t-172 69t-171.5 -69t-66.5 -178zM1274 674h451q-25 81 -83.5 123.5t-144.5 42.5q-85 0 -142 -43t-81 -123z" />
<glyph unicode="&#x178;" horiz-adv-x="1431" d="M17 1434h438l262 -518l262 518h438l-501 -873v-561h-402v562zM282 1560v318h350v-318h-350zM804 1560v318h350v-318h-350z" />
<glyph unicode="&#x2c6;" horiz-adv-x="1228" d="M202 1228l243 340h402l245 -340h-297l-149 156l-146 -156h-298z" />
<glyph unicode="&#x2dc;" horiz-adv-x="1228" d="M195 1239v25q0 137 68.5 217t194.5 80q90 0 191 -64q62 -40 94 -40q31 0 49 20t18 55v23h208v-26q0 -139 -70 -218t-192 -79q-12 0 -25 1.5t-22.5 2.5t-22.5 5t-20.5 5.5t-21 7.5l-18 8t-19 9t-17 8.5t-17 9.5t-15.5 8q-63 34 -89 34q-29 0 -48 -20t-19 -52v-20h-207z " />
<glyph unicode="&#x2000;" horiz-adv-x="1026" />
<glyph unicode="&#x2001;" horiz-adv-x="2052" />
<glyph unicode="&#x2002;" horiz-adv-x="1026" />
<glyph unicode="&#x2003;" horiz-adv-x="2052" />
<glyph unicode="&#x2004;" horiz-adv-x="684" />
<glyph unicode="&#x2005;" horiz-adv-x="513" />
<glyph unicode="&#x2006;" horiz-adv-x="342" />
<glyph unicode="&#x2007;" horiz-adv-x="342" />
<glyph unicode="&#x2008;" horiz-adv-x="256" />
<glyph unicode="&#x2009;" horiz-adv-x="410" />
<glyph unicode="&#x200a;" horiz-adv-x="114" />
<glyph unicode="&#x2010;" horiz-adv-x="972" d="M112 394v346h750v-346h-750z" />
<glyph unicode="&#x2011;" horiz-adv-x="972" d="M112 394v346h750v-346h-750z" />
<glyph unicode="&#x2012;" horiz-adv-x="972" d="M112 394v346h750v-346h-750z" />
<glyph unicode="&#x2013;" horiz-adv-x="1271" d="M112 394v346h1049v-346h-1049z" />
<glyph unicode="&#x2014;" horiz-adv-x="1693" d="M112 394v346h1470v-346h-1470z" />
<glyph unicode="&#x2018;" horiz-adv-x="567" d="M93 849v324q0 165 98 269.5t259 118.5v-189q-79 -7 -121 -54t-42 -115h178v-354h-372z" />
<glyph unicode="&#x2019;" horiz-adv-x="552" d="M104 1114v354h372v-324q0 -165 -97.5 -269.5t-258.5 -118.5v189q79 7 120.5 53.5t41.5 115.5h-178z" />
<glyph unicode="&#x201a;" horiz-adv-x="583" d="M106 0v354h372v-324q0 -165 -98 -269.5t-259 -118.5v189q79 7 121 54t42 115h-178z" />
<glyph unicode="&#x201c;" horiz-adv-x="1069" d="M93 849v324q0 165 98 269.5t259 118.5v-189q-79 -7 -121 -54t-42 -115h178v-354h-372zM594 849v324q0 165 98 269.5t259 118.5v-189q-79 -7 -121 -54t-42 -115h178v-354h-372z" />
<glyph unicode="&#x201d;" horiz-adv-x="1054" d="M104 1114v354h372v-324q0 -165 -97.5 -269.5t-258.5 -118.5v189q79 7 120.5 53.5t41.5 115.5h-178zM605 1114v354h372v-324q0 -165 -97.5 -269.5t-258.5 -118.5v189q79 7 120.5 53.5t41.5 115.5h-178z" />
<glyph unicode="&#x201e;" horiz-adv-x="1083" d="M106 0v354h372v-324q0 -165 -98 -269.5t-259 -118.5v189q79 7 121 54t42 115h-178zM607 0v354h371v-324q0 -165 -97.5 -269.5t-258.5 -118.5v188q79 7 121 54t42 116h-178z" />
<glyph unicode="&#x2022;" horiz-adv-x="831" d="M120 617q0 127 84.5 211.5t210.5 84.5q127 0 211.5 -84.5t84.5 -211.5q0 -126 -84.5 -210.5t-211.5 -84.5q-126 0 -210.5 84.5t-84.5 210.5z" />
<glyph unicode="&#x2026;" horiz-adv-x="1552" d="M106 0v354h369v-354h-369zM591 0v354h370v-354h-370zM1076 0v354h370v-354h-370z" />
<glyph unicode="&#x202f;" horiz-adv-x="410" />
<glyph unicode="&#x2039;" horiz-adv-x="856" d="M54 528v37l321 437h424l-328 -455l328 -456h-424z" />
<glyph unicode="&#x203a;" horiz-adv-x="856" d="M58 91l328 456l-328 455h424l321 -437v-37l-321 -437h-424z" />
<glyph unicode="&#x205f;" horiz-adv-x="513" />
<glyph unicode="&#x20ac;" horiz-adv-x="1353" d="M62 392l59 234h150q-2 38 -2 58q0 16 2 44h-206l59 235h196q78 204 257.5 324.5t408.5 120.5q161 0 309 -58l-76 -295q-93 38 -210 38q-194 0 -306 -134h487l-59 -231h-518q-2 -28 -2 -44q0 -30 3 -58h491l-60 -231l-335 1q111 -122 305 -122q112 0 204 35v-311 q-108 -34 -232 -34q-232 0 -408 115t-255 313h-262z" />
<glyph unicode="&#x2122;" horiz-adv-x="1341" d="M57 1293v141h461v-141h-152v-371h-157v371h-152zM550 922l79 512h144l127 -262l128 262h144l77 -512h-153l-39 271l-137 -271h-41l-137 271l-38 -271h-154z" />
<glyph unicode="&#x25fc;" horiz-adv-x="1105" d="M0 0v1106h1106v-1106h-1106z" />
</font>
</defs>
</svg>
