<?xml version="1.0" standalone="no"?>
<!DOCTYPE svg PUBLIC "-//W3C//DTD SVG 1.1//EN" "http://www.w3.org/Graphics/SVG/1.1/DTD/svg11.dtd" >
<svg xmlns="http://www.w3.org/2000/svg" xmlns:xlink="http://www.w3.org/1999/xlink" version="1.1">
<metadata></metadata>
<defs>
<font id="montsemibold" horiz-adv-x="1445" >
<font-face units-per-em="2048" ascent="1638" descent="-410" />
<missing-glyph horiz-adv-x="516" />
<glyph horiz-adv-x="0" />
<glyph horiz-adv-x="682" />
<glyph unicode=" "  horiz-adv-x="516" />
<glyph unicode="&#x09;" horiz-adv-x="516" />
<glyph unicode="&#xa0;" horiz-adv-x="516" />
<glyph unicode="!" horiz-adv-x="598" d="M175 0v261h249v-261h-249zM184 422v1053h230v-1053h-230z" />
<glyph unicode="&#x22;" horiz-adv-x="839" d="M135 918v520h212v-520h-212zM494 918v520h211v-520h-211z" />
<glyph unicode="#" horiz-adv-x="1323" d="M91 385v197h187l45 282h-185v190h216l59 380h209l-58 -380h310l58 380h209l-58 -380h148v-190h-175l-41 -282h168v-197h-200l-57 -383h-209l56 383h-317l-62 -383h-209l61 383h-155zM488 582h317l41 282h-312z" />
<glyph unicode="$" horiz-adv-x="1181" d="M81 440h229q0 -114 82 -178t207 -64q114 0 193.5 56t79.5 146q0 28 -9.5 52t-22 41t-39.5 33t-46.5 25.5t-60 21t-62 17t-70.5 16.5q-85 19 -132 32t-119 44.5t-110 69t-67.5 102.5t-29.5 149q0 164 104 266t285 123v146h190v-147q181 -24 280 -136t99 -290h-224 q0 104 -72.5 162t-184.5 58q-107 0 -178.5 -46t-71.5 -126q0 -26 9 -48.5t21.5 -38.5t38.5 -31.5t45 -24.5t58 -21t60.5 -17.5t68.5 -16.5t73.5 -17.5t72 -20t73 -25t66 -31t61.5 -39.5t49.5 -49.5t41 -62.5t24 -76t9.5 -92q0 -172 -110.5 -281.5t-296.5 -133.5v-157h-186 v156q-201 23 -314.5 142.5t-113.5 311.5z" />
<glyph unicode="%" horiz-adv-x="1595" d="M62 1069q0 138 89 226t229 88q139 0 227.5 -88t88.5 -226q0 -139 -88.5 -227.5t-227.5 -88.5q-140 0 -229 88.5t-89 227.5zM233 1069q0 -64 42 -106.5t105 -42.5q64 0 105 42t41 107q0 64 -41 105.5t-105 41.5q-63 0 -105 -41.5t-42 -105.5zM274 1l821 1362h205 l-821 -1362h-205zM901 295q0 138 88.5 225t227.5 87t227.5 -87t88.5 -225t-88.5 -225.5t-227.5 -87.5t-227.5 87.5t-88.5 225.5zM1072 295q0 -64 41 -105t104 -41q64 0 104.5 41t40.5 105t-40.5 105t-104.5 41q-63 0 -104 -41t-41 -105z" />
<glyph unicode="&#x26;" horiz-adv-x="1296" d="M87 371q0 59 15 112.5t39 94.5t60.5 80t74 68t84.5 59q-85 117 -117 194.5t-32 154.5q0 148 104 235t276 87q168 0 272 -87.5t104 -228.5q0 -58 -19 -110.5t-46.5 -91t-74.5 -78t-86.5 -65t-97.5 -59.5q97 -121 287 -336q65 114 68 255h192q-3 -236 -122 -410 q32 -35 222 -245h-252q-30 34 -99 109q-171 -132 -411 -132q-198 0 -319.5 108t-121.5 286zM301 378q0 -90 68.5 -145t179.5 -55q143 0 255 81q-205 228 -328 377q-84 -57 -129.5 -118t-45.5 -140zM414 1134q0 -84 117 -250q56 32 92 55.5t72 55.5t53.5 67.5t17.5 76.5 q0 64 -49 104.5t-126 40.5q-80 0 -128.5 -41.5t-48.5 -108.5z" />
<glyph unicode="'" horiz-adv-x="483" d="M135 918v520h212v-520h-212z" />
<glyph unicode="(" horiz-adv-x="657" d="M96 663q0 267 76.5 509.5t215.5 443.5h252q-136 -179 -227.5 -429.5t-91.5 -523.5q0 -274 91 -524.5t227 -424.5h-251q-139 199 -215.5 441t-76.5 508z" />
<glyph unicode=")" horiz-adv-x="657" d="M18 1616h252q140 -201 216.5 -444t76.5 -509q0 -265 -77 -507.5t-216 -441.5h-251q136 174 227 424.5t91 524.5q0 273 -91.5 523.5t-227.5 429.5z" />
<glyph unicode="*" horiz-adv-x="839" d="M79 1146l57 162l197 -70v210h174v-210l197 70l59 -162l-204 -68l138 -169l-133 -110l-144 182l-143 -182l-135 110l138 168z" />
<glyph unicode="+" horiz-adv-x="1093" d="M69 590v210h367v374h223v-374h365v-210h-365v-385h-223v385h-367z" />
<glyph unicode="," horiz-adv-x="528" d="M135 0v260h258v-241q0 -132 -65 -211t-181 -102v117q128 30 128 177h-140z" />
<glyph unicode="-" horiz-adv-x="925" d="M135 464v219h657v-219h-657z" />
<glyph unicode="." horiz-adv-x="516" d="M133 0v261h250v-261h-250z" />
<glyph unicode="/" horiz-adv-x="946" d="M48 -152l610 1711h238l-608 -1711h-240z" />
<glyph unicode="0" horiz-adv-x="1284" d="M104 682q0 326 144.5 515.5t393.5 189.5q248 0 392.5 -189.5t144.5 -515.5q0 -325 -145 -516t-392 -191q-248 0 -393 191t-145 516zM328 682q0 -236 82.5 -367t231.5 -131q148 0 231 131t83 366t-83.5 366t-230.5 131q-149 0 -231.5 -130.5t-82.5 -365.5z" />
<glyph unicode="1" horiz-adv-x="702" d="M59 1163v199h459v-1362h-218v1163h-241z" />
<glyph unicode="2" horiz-adv-x="1095" d="M71 0v60q306 334 442.5 499t181 250.5t44.5 169.5q0 90 -56.5 145t-148.5 55q-96 0 -154.5 -56.5t-58.5 -146.5v-30h-221v31q0 184 119 297.5t313 113.5q190 0 310 -114.5t120 -293.5q0 -95 -34 -183t-135 -227.5t-298 -360.5h508v-209h-932z" />
<glyph unicode="3" horiz-adv-x="1110" d="M87 411h220q6 -102 71.5 -164.5t166.5 -62.5q107 0 176 70.5t69 179.5t-74.5 177.5t-191.5 68.5h-172v42l283 439h-509v201h834v-46l-301 -464q160 -29 257 -145t97 -280q0 -196 -133.5 -324t-334.5 -128q-195 0 -322.5 122t-135.5 314z" />
<glyph unicode="4" horiz-adv-x="1120" d="M39 276v45l465 1041h226l-399 -891h390l37 380h172v-380h131v-195h-131v-276h-213v276h-678z" />
<glyph unicode="5" horiz-adv-x="1091" d="M83 411h221q4 -100 72 -163.5t170 -63.5q103 0 171.5 69.5t68.5 174.5q0 108 -74 179t-187 71h-361l-26 32l72 652h705v-201h-526l-32 -289h176q207 0 341.5 -126.5t134.5 -317.5q0 -195 -132.5 -324t-330.5 -129q-197 0 -327.5 123.5t-135.5 312.5z" />
<glyph unicode="6" horiz-adv-x="1150" d="M93 451q0 189 146 444l272 476h243q-240 -423 -284 -507q81 32 163 32q191 0 325 -124.5t134 -320.5q0 -208 -139.5 -342t-357.5 -134q-221 0 -361.5 133.5t-140.5 342.5zM316 451q0 -116 78.5 -191.5t198.5 -75.5t198 75t78 192q0 118 -77.5 192.5t-198.5 74.5 q-120 0 -198.5 -75t-78.5 -192z" />
<glyph unicode="7" horiz-adv-x="1042" d="M55 1161v201h944v-34l-529 -1328h-233l466 1161h-648z" />
<glyph unicode="8" horiz-adv-x="1189" d="M101 402q0 102 47.5 187t133.5 138q-65 50 -101.5 125t-36.5 160q0 166 125.5 271t325.5 105t324 -104.5t124 -271.5q0 -87 -35.5 -162.5t-98.5 -122.5q85 -51 132.5 -136.5t47.5 -188.5q0 -187 -138.5 -307t-356.5 -120q-220 0 -356.5 118t-136.5 309zM323 399 q0 -102 75.5 -166.5t196.5 -64.5q122 0 197 64.5t75 166.5q0 103 -75 168t-197 65q-121 0 -196.5 -65t-75.5 -168zM362 1009q0 -86 65 -141t168 -55q102 0 166 55t64 141q0 85 -64 139.5t-166 54.5q-103 0 -168 -54.5t-65 -139.5z" />
<glyph unicode="9" horiz-adv-x="1146" d="M59 912q0 208 139.5 342t356.5 134q219 0 359 -133.5t140 -342.5q0 -200 -143 -444l-273 -468h-243q227 395 284 499q-78 -32 -162 -32q-196 0 -327 127.5t-131 317.5zM278 912q0 -117 78.5 -192t200.5 -75q121 0 200 75t79 192q0 116 -79 192.5t-200 76.5t-200 -76 t-79 -193z" />
<glyph unicode=":" horiz-adv-x="522" d="M136 0v261h250v-261h-250zM136 764v261h250v-261h-250z" />
<glyph unicode=";" horiz-adv-x="534" d="M137 0v260h258v-241q0 -132 -65 -211t-181 -102v117q128 30 128 177h-140zM143 766v261h250v-261h-250z" />
<glyph unicode="&#x3c;" horiz-adv-x="1087" d="M55 663v45l880 569v-255l-540 -333l540 -328v-256z" />
<glyph unicode="=" horiz-adv-x="1267" d="M142 359v209h983v-209h-983zM142 809v210h983v-210h-983z" />
<glyph unicode="&#x3e;" horiz-adv-x="1087" d="M152 105v256l541 328l-541 333v255l881 -569v-45z" />
<glyph unicode="?" horiz-adv-x="1077" d="M59 1084q3 136 71 236t170 148t223 48q125 0 228.5 -50.5t167.5 -151.5t64 -235q0 -73 -16.5 -130.5t-51.5 -103.5t-61.5 -71t-75.5 -64q-36 -29 -50 -41t-40.5 -39.5t-37.5 -48.5t-21 -53t-10 -67v-45h-228v45q0 43 7 81.5t16 67t27.5 57.5t32.5 47t40 42t40 35.5 t43 33.5q32 24 50.5 39t43.5 40.5t38 48.5t22.5 56t9.5 70q0 102 -68 164.5t-171 62.5q-101 0 -173 -60t-76 -162h-214zM380 0v261h249v-261h-249z" />
<glyph unicode="@" horiz-adv-x="2060" d="M86 487q0 200 72.5 367.5t199 280.5t299 175.5t370.5 62.5q199 0 371.5 -62t298 -173t197.5 -275t72 -359q0 -210 -107 -336.5t-266 -126.5q-88 0 -157.5 38.5t-104.5 105.5q-60 -78 -149 -121t-194 -43q-198 0 -328.5 132t-130.5 332t130.5 331.5t328.5 131.5 q199 0 325 -142l28 93h113v-522q0 -73 41 -119t104 -46q81 0 134 80t53 212q0 202 -95 360t-267 246t-392 88q-165 0 -307.5 -53t-242.5 -146t-157 -225.5t-57 -286.5q0 -308 200 -500.5t520 -192.5q201 0 351 79v-176q-185 -80 -373 -80q-152 0 -288.5 41t-244 118.5 t-185.5 183.5t-120 241t-42 286zM732 487q0 -118 77 -196t194 -78q118 0 195 77.5t77 196.5t-76.5 195.5t-195.5 76.5q-117 0 -194 -77.5t-77 -194.5z" />
<glyph unicode="A" d="M27 0l576 1434h222l593 -1434h-256l-123 312h-640l-122 -312h-250zM481 523h476l-240 604z" />
<glyph unicode="B" horiz-adv-x="1318" d="M182 0v1434h578q180 0 298 -105t118 -264q0 -94 -45 -181t-122 -137q96 -45 150 -137t54 -208q0 -169 -128 -285.5t-314 -116.5h-589zM414 225h344q94 0 154.5 57t60.5 146q0 87 -61 144.5t-154 57.5h-344v-405zM414 844h332q85 0 140 53.5t55 133.5t-55 133t-140 53 h-332v-373z" />
<glyph unicode="C" horiz-adv-x="1585" d="M91 716q0 158 56 296.5t153 236.5t234 154t294 56q254 0 442 -146t244 -388h-238q-51 143 -170 224.5t-278 81.5q-216 0 -357 -145.5t-141 -369.5t141 -369t357 -145q164 0 284 87t169 240h239q-56 -253 -244.5 -403.5t-447.5 -150.5q-157 0 -294 56t-234 153.5 t-153 235.5t-56 296z" />
<glyph unicode="D" horiz-adv-x="1507" d="M182 0v1434h506q156 0 291.5 -54t231 -148.5t150 -228t54.5 -286.5q0 -205 -93.5 -369t-259.5 -256t-374 -92h-506zM418 219h263q217 0 355 140.5t138 357.5t-138 357t-355 140h-263v-995z" />
<glyph unicode="E" horiz-adv-x="1138" d="M182 0v1434h833v-221h-597v-374h544v-216h-544v-401h619v-222h-855z" />
<glyph unicode="F" horiz-adv-x="1081" d="M182 0v1434h827v-221h-591v-406h538v-216h-538v-591h-236z" />
<glyph unicode="G" horiz-adv-x="1634" d="M91 716q0 158 55 296t151.5 236t232 154.5t290.5 56.5q262 0 460 -149t247 -383h-243q-46 138 -171.5 221t-287.5 83q-218 0 -356.5 -144t-138.5 -371q0 -229 137 -372t358 -143q172 0 299.5 89t168.5 235h-511v203h766q-3 -217 -95 -389t-256 -269t-372 -97 q-156 0 -292.5 56t-233.5 154t-152.5 236.5t-55.5 296.5z" />
<glyph unicode="H" horiz-adv-x="1490" d="M182 0v1434h236v-586h655v586h236v-1434h-236v625h-655v-625h-236z" />
<glyph unicode="I" horiz-adv-x="600" d="M182 0v1434h236v-1434h-236z" />
<glyph unicode="J" horiz-adv-x="1232" d="M52 481v39h233v-28q0 -130 77.5 -211.5t199.5 -81.5q118 0 194 82t76 211v942h233v-953q0 -223 -141 -365.5t-362 -142.5t-365.5 143.5t-144.5 364.5z" />
<glyph unicode="K" horiz-adv-x="1320" d="M182 0v1434h236v-586h167l408 586h289l-489 -692l534 -742h-292l-449 629h-168v-629h-236z" />
<glyph unicode="L" horiz-adv-x="1056" d="M182 0v1434h236v-1215h596v-219h-832z" />
<glyph unicode="M" horiz-adv-x="1974" d="M83 0l235 1434h231l437 -975l439 975h235l230 -1434h-240l-166 1039l-466 -1017h-60l-467 1016l-168 -1038h-240z" />
<glyph unicode="N" horiz-adv-x="1538" d="M182 0v1434h213l730 -1007v1007h230v-1434h-197l-745 1024v-1024h-231z" />
<glyph unicode="O" horiz-adv-x="1691" d="M90 717q0 210 98 380t271.5 267t387.5 97t387 -97t270.5 -267t97.5 -380t-97.5 -380t-270.5 -267t-387 -97t-387.5 97t-271.5 267t-98 380zM330 717q0 -145 67 -263.5t185.5 -186t264.5 -67.5q222 0 369 147.5t147 369.5t-147 369.5t-369 147.5q-146 0 -264.5 -67.5 t-185.5 -186t-67 -263.5z" />
<glyph unicode="P" horiz-adv-x="1259" d="M182 0v1434h530q209 0 349 -135t140 -339q0 -203 -140 -338t-349 -135h-294v-487h-236zM418 710h283q114 0 187.5 71t73.5 179t-73.5 179t-187.5 71h-283v-500z" />
<glyph unicode="Q" horiz-adv-x="1693" d="M90 717q0 210 98 380t271.5 267t387.5 97t387 -97t270.5 -267t97.5 -380q0 -167 -63 -310t-177 -245l277 -324h-265l-181 211q-158 -76 -346 -76q-214 0 -387.5 97t-271.5 267t-98 380zM330 717q0 -145 67 -263.5t185.5 -186.5t264.5 -68q98 0 189 33l-313 366h265 l221 -258q73 71 113.5 168t40.5 209q0 222 -147 369.5t-369 147.5q-146 0 -264.5 -67.5t-185.5 -186t-67 -263.5z" />
<glyph unicode="R" horiz-adv-x="1333" d="M182 0v1434h558q208 0 345 -128t137 -326q0 -144 -79 -255.5t-212 -160.5l331 -564h-264l-308 531h-272v-531h-236zM418 751h309q116 0 186 64.5t70 166.5q0 101 -70.5 166t-185.5 65h-309v-462z" />
<glyph unicode="S" horiz-adv-x="1241" d="M89 451h239q0 -116 84.5 -182t215.5 -66q119 0 201 58t82 154q0 21 -4 39.5t-14 34.5t-19 28.5t-28.5 24.5t-32 20.5t-39.5 18t-42 15t-47.5 14t-48 12t-51.5 12.5q-183 44 -264 83q-182 88 -204 269q-4 28 -4 58q0 193 135.5 302t366.5 109q232 0 363.5 -118t131.5 -322 h-232q0 104 -75.5 162.5t-192.5 58.5q-112 0 -186.5 -48.5t-74.5 -133.5q0 -32 10.5 -58t35 -46.5t48 -34.5t67 -28t73 -22t83.5 -21q185 -46 267 -85q187 -91 214 -273q5 -33 5 -69q0 -139 -70.5 -240t-187.5 -150t-264 -49q-244 0 -392.5 127.5t-148.5 345.5z" />
<glyph unicode="T" horiz-adv-x="1163" d="M44 1214v220h1075l1 -220h-421v-1214h-235v1214h-420z" />
<glyph unicode="U" horiz-adv-x="1484" d="M167 536v898h236v-883q0 -158 95 -255t245 -97q149 0 243.5 97t94.5 255v883h237v-898q0 -163 -75 -292t-206 -200t-294 -71t-294.5 71t-206.5 200t-75 292z" />
<glyph unicode="V" horiz-adv-x="1413" d="M28 1434h260l421 -1097l412 1097h257l-558 -1434h-220z" />
<glyph unicode="W" horiz-adv-x="2115" d="M37 1434h249l324 -1059l402 1038h87l413 -1038l316 1059h247l-448 -1434h-208l-363 925l-353 -925h-209z" />
<glyph unicode="X" horiz-adv-x="1251" d="M13 0l470 752l-436 682h265l315 -504l313 504h262l-432 -691l469 -743h-264l-348 559l-348 -559h-266z" />
<glyph unicode="Y" horiz-adv-x="1366" d="M47 1434h254l383 -642l384 642h254l-519 -860v-574h-242v575z" />
<glyph unicode="Z" horiz-adv-x="1171" d="M53 0v37l679 1177h-645v220h1007v-44l-675 -1171h697v-219h-1063z" />
<glyph unicode="[" horiz-adv-x="698" d="M183 -295v1922h452v-192h-239v-1533h243v-197h-456z" />
<glyph unicode="\" horiz-adv-x="946" d="M50 1559h238l610 -1711h-239z" />
<glyph unicode="]" horiz-adv-x="698" d="M61 -98h243v1533h-239v192h451v-1922h-455v197z" />
<glyph unicode="^" horiz-adv-x="1122" d="M64 694l480 744h37l477 -744h-257l-241 388l-240 -388h-256z" />
<glyph unicode="_" horiz-adv-x="1056" d="M0 -88h1057v-217h-1057v217z" />
<glyph unicode="`" horiz-adv-x="1228" d="M230 1544h242l127 -311h-175z" />
<glyph unicode="a" horiz-adv-x="1425" d="M81 554q0 164 75 296.5t207 207.5t294 75q120 0 224 -43t180 -122l27 139l175 -1v-1105h-183l-22 134q-76 -77 -179 -119.5t-222 -42.5q-162 0 -294 75.5t-207 209t-75 296.5zM312 554q0 -156 103 -259.5t259 -103.5t258.5 103.5t102.5 259.5t-102.5 259t-258.5 103 t-259 -103.5t-103 -258.5z" />
<glyph unicode="b" horiz-adv-x="1409" d="M162 0v1502h227v-498q154 129 365 129q250 0 412.5 -164.5t162.5 -415.5q0 -249 -162.5 -414.5t-412.5 -165.5q-233 0 -391 153l-29 -126h-172zM373 553q0 -154 103.5 -258t259.5 -104t258.5 103t102.5 259t-102.5 259.5t-258.5 103.5t-259.5 -104t-103.5 -259z" />
<glyph unicode="c" horiz-adv-x="1273" d="M81 554q0 163 75.5 295.5t208.5 208t296 75.5q204 0 353 -115t195 -306h-225q-44 95 -130 149.5t-194 54.5q-149 0 -248.5 -104t-99.5 -258t100 -259t248 -105q109 0 193.5 56t129.5 157h229q-46 -194 -197 -312t-355 -118q-162 0 -295 76t-208.5 209t-75.5 296z" />
<glyph unicode="d" horiz-adv-x="1409" d="M81 553q0 250 162.5 415t412.5 165q210 0 364 -129v498h227v-1502h-172l-29 125q-159 -153 -390 -153q-249 0 -412 166t-163 415zM313 553q0 -156 102 -259.5t258 -103.5t259.5 104t103.5 259t-103.5 259t-259.5 104t-258 -103.5t-102 -259.5z" />
<glyph unicode="e" horiz-adv-x="1292" d="M81 553q0 163 74 296t204 208.5t290 75.5q165 0 295 -78.5t199.5 -211t69.5 -293.5q0 -32 -5 -74h-898q21 -134 112 -212t227 -78q98 0 175.5 43t121.5 119h240q-66 -175 -209 -275t-328 -100q-242 0 -405 166.5t-163 413.5zM316 660h669q-31 126 -120.5 197t-215.5 71 q-127 0 -216 -72t-117 -196z" />
<glyph unicode="f" horiz-adv-x="817" d="M42 906v189h208v94q0 351 353 351h184v-182h-141q-93 0 -134.5 -41t-41.5 -133v-89h319v-189h-313v-906h-227v906h-207z" />
<glyph unicode="g" horiz-adv-x="1378" d="M81 582q0 152 71.5 278.5t197 199.5t277.5 73q119 0 223.5 -45t180.5 -125l36 143h149v-961q0 -265 -147.5 -416.5t-404.5 -151.5q-212 0 -355.5 103.5t-185.5 285.5h227q31 -88 117.5 -138t194.5 -50q146 0 238.5 90.5t92.5 245.5v51q-154 -133 -366 -133 q-152 0 -277 72.5t-197 198.5t-72 279zM312 582q0 -146 97 -242.5t244 -96.5t243 96t96 243t-95.5 243t-243.5 96q-147 0 -244 -96.5t-97 -242.5z" />
<glyph unicode="h" horiz-adv-x="1314" d="M162 0v1502h227v-522q65 72 158 111.5t202 39.5q193 0 305.5 -125.5t112.5 -339.5v-666h-227v620q0 151 -64 229t-190 78q-129 0 -213 -94t-84 -241v-592h-227z" />
<glyph unicode="i" horiz-adv-x="550" d="M158 1277v235h235v-235h-235zM162 0v1106h227v-1106h-227z" />
<glyph unicode="j" horiz-adv-x="575" d="M-88 -188h79q95 0 145.5 50.5t50.5 145.5v1098h227v-1115q0 -173 -107.5 -280t-281.5 -107h-113v208zM184 1277v235h235v-235h-235z" />
<glyph unicode="k" horiz-adv-x="1163" d="M185 0v1502h227v-824h140l298 428h270l-375 -531l414 -575h-278l-331 472h-138v-472h-227z" />
<glyph unicode="l" horiz-adv-x="550" d="M162 0v1502h227v-1502h-227z" />
<glyph unicode="m" horiz-adv-x="1935" d="M162 0v1106h161l39 -143q63 79 153.5 123.5t190.5 44.5q111 0 197.5 -51.5t134.5 -142.5q61 90 156 142t204 52q174 0 282.5 -120t108.5 -308v-703h-227v647q0 134 -56 207t-159 73q-111 0 -185.5 -91t-74.5 -231v-605h-222v647q0 134 -55.5 207t-159.5 73 q-111 0 -186 -91t-75 -231v-605h-227z" />
<glyph unicode="n" horiz-adv-x="1314" d="M162 0v1106h158l45 -154q64 85 163 132t219 47q192 0 306 -129t114 -336v-666h-227v620q0 151 -64.5 229t-189.5 78q-130 0 -213.5 -94.5t-83.5 -240.5v-592h-227z" />
<glyph unicode="o" horiz-adv-x="1343" d="M81 553q0 165 77 297.5t212 207.5t302 75t302 -75t212 -208t77 -297t-77 -296.5t-212 -208t-302 -75.5t-302 75.5t-212 208t-77 296.5zM312 553q0 -159 101.5 -261t258.5 -102t258.5 102t101.5 261t-101.5 261t-258.5 102t-258.5 -102t-101.5 -261z" />
<glyph unicode="p" horiz-adv-x="1411" d="M162 -396v1502h153l43 -136q76 78 178.5 120.5t220.5 42.5q163 0 294 -75t204.5 -208t73.5 -297q0 -249 -162.5 -415t-409.5 -166q-213 0 -368 134v-502h-227zM376 553q0 -155 103.5 -259t259.5 -104t258 103.5t102 259.5t-102 259.5t-258 103.5t-259.5 -104t-103.5 -259 z" />
<glyph unicode="q" horiz-adv-x="1411" d="M81 553q0 123 43.5 231t119 184.5t182 120.5t228.5 44q238 0 398 -163l43 136h153v-1502h-227v502q-155 -134 -367 -134q-122 0 -229 44.5t-182 121.5t-118.5 184.5t-43.5 230.5zM311 553q0 -156 102 -259.5t258 -103.5t259.5 104t103.5 259t-103.5 259t-259.5 104 t-258 -103.5t-102 -259.5z" />
<glyph unicode="r" horiz-adv-x="806" d="M162 0v1106h154l38 -151q118 157 339 157h98v-215h-120q-140 0 -211 -78t-71 -229v-590h-227z" />
<glyph unicode="s" horiz-adv-x="1060" d="M78 351h222q4 -85 69.5 -131.5t168.5 -46.5q94 0 155 38.5t61 105.5q0 30 -14.5 54t-35 38.5t-58 26.5t-67 18t-79.5 15q-51 9 -81 15t-78 19.5t-77.5 28.5t-64.5 40t-54.5 55.5t-33 74.5t-13.5 97q0 149 118.5 241.5t310.5 92.5t308.5 -96.5t119.5 -257.5h-215 q-3 78 -60 119.5t-158 41.5q-94 0 -149 -36.5t-55 -97.5q0 -24 8 -42.5t27.5 -32.5t37 -23t52 -17t56.5 -12.5t65 -11.5q162 -27 233 -57q170 -73 180 -257q1 -12 1 -26q0 -161 -123 -257.5t-325 -96.5t-324.5 103t-127.5 275z" />
<glyph unicode="t" horiz-adv-x="839" d="M22 911v44l385 409h39v-258h329v-195h-327v-499q0 -99 53.5 -152.5t153.5 -53.5h126v-206h-169q-182 0 -287 105.5t-105 288.5v517h-198z" />
<glyph unicode="u" horiz-adv-x="1294" d="M145 467v639h227v-607q0 -144 74 -226.5t202 -82.5t201.5 83t73.5 226v607h227v-639q0 -224 -137 -359t-365 -135t-365.5 135t-137.5 359z" />
<glyph unicode="v" horiz-adv-x="1181" d="M23 1106h240l331 -820l325 820h234l-455 -1106h-208z" />
<glyph unicode="w" horiz-adv-x="1740" d="M32 1106h234l250 -745l317 733h74l321 -739l254 751h228l-371 -1106h-184l-285 673l-284 -673h-184z" />
<glyph unicode="x" horiz-adv-x="1079" d="M10 0l393 572l-363 534h256l244 -372l252 372h250l-367 -523l395 -583h-256l-275 421l-279 -421h-250z" />
<glyph unicode="y" horiz-adv-x="1214" d="M23 1106h247l351 -771l330 771h242l-508 -1126q-95 -211 -194 -293.5t-266 -82.5h-113v204h95q108 0 159 42.5t113 177.5l25 52z" />
<glyph unicode="z" horiz-adv-x="1003" d="M48 0v29l536 869h-494v208h844v-34l-531 -861h532v-211h-887z" />
<glyph unicode="{" horiz-adv-x="729" d="M68 564v189h34q47 0 80 32.5t33 79.5v482q0 110 79 188t189 78h180v-199h-98q-54 0 -89.5 -35.5t-35.5 -89.5v-411q0 -74 -38.5 -133.5t-97.5 -85.5q59 -25 97.5 -85t38.5 -134v-407q0 -53 35.5 -89t89.5 -36h100v-200h-182q-111 0 -189.5 78.5t-78.5 190.5v476 q0 46 -33 78.5t-80 32.5h-34z" />
<glyph unicode="|" horiz-adv-x="577" d="M183 -389v2109h212v-2109h-212z" />
<glyph unicode="}" horiz-adv-x="729" d="M65 -92h100q54 0 89.5 36t35.5 89v407q0 74 38.5 134t97.5 85q-59 26 -97.5 85.5t-38.5 133.5v411q0 54 -35.5 89.5t-89.5 35.5h-98v199h180q110 0 189 -78t79 -188v-482q0 -47 33 -79.5t80 -32.5h34v-189h-34q-47 0 -80 -32.5t-33 -78.5v-476q0 -112 -78.5 -190.5 t-189.5 -78.5h-182v200z" />
<glyph unicode="~" horiz-adv-x="1196" d="M137 480v35q0 154 74.5 244.5t202.5 90.5q73 0 129.5 -26.5t119.5 -84.5q46 -40 73.5 -55.5t57.5 -15.5q52 0 84 39t32 103v32h161v-34q0 -154 -73.5 -244t-199.5 -90q-71 0 -130 26t-128 85q-44 38 -70.5 52.5t-53.5 14.5q-51 0 -84 -40.5t-33 -103.5v-28h-162z" />
<glyph unicode="&#xa1;" horiz-adv-x="565" d="M157 845v261h250v-261h-250zM168 -369v1053h230v-1053h-230z" />
<glyph unicode="&#xa2;" horiz-adv-x="1224" d="M89 529q0 211 129 361.5t332 180.5v169h181v-169q161 -25 275 -130t152 -263h-216q-41 90 -122 140.5t-182 50.5q-141 0 -235 -97.5t-94 -243.5q0 -145 94.5 -243t234.5 -98q102 0 182 52.5t123 146.5l218 -3q-39 -160 -154 -266.5t-276 -131.5v-155h-181v155 q-201 30 -331 182t-130 362z" />
<glyph unicode="&#xa3;" horiz-adv-x="1228" d="M95 0v156l136 30v376h-111v185h111v241q0 182 122 297.5t313 115.5q186 0 300.5 -112.5t114.5 -294.5v-24h-202v12q0 94 -60 154.5t-153 60.5q-95 0 -155.5 -61.5t-60.5 -159.5v-229h331v-185h-331v-370h485v167h202v-359h-1042z" />
<glyph unicode="&#xa4;" horiz-adv-x="1232" d="M96 221l150 155q-72 110 -72 239q0 139 77 251l-150 151l131 131l156 -155q105 62 226 62q122 0 229 -64l156 157l130 -131l-152 -153q77 -114 77 -249q0 -129 -70 -237l155 -159l-130 -130l-156 158q-110 -70 -239 -70q-130 0 -238 69l-149 -155zM361 617 q0 -103 75.5 -178t179.5 -75q103 0 176 74.5t73 178.5q0 103 -72.5 177t-176.5 74q-103 0 -179 -73.5t-76 -177.5z" />
<glyph unicode="&#xa5;" horiz-adv-x="1331" d="M61 1362h232l370 -579l374 579h234l-495 -753v-47h367v-138h-367v-113h367v-135h-367v-176h-224v176h-366v135h366v113h-366v138h366v44z" />
<glyph unicode="&#xa6;" horiz-adv-x="577" d="M183 -389v921h212v-921h-212zM183 819v901h212v-901h-212z" />
<glyph unicode="&#xa7;" horiz-adv-x="1073" d="M97 678q0 177 153 268q-97 75 -97 205q0 148 101 229t268 81q182 0 291.5 -94.5t109.5 -249.5h-188q0 78 -61.5 123.5t-153.5 45.5q-76 0 -126.5 -36t-50.5 -97q0 -29 14 -53t33 -39.5t55.5 -31t64 -24t76.5 -21.5q43 -10 68 -17t66.5 -20t67 -26t58.5 -32t53 -42.5 t39.5 -53.5t28 -68t8.5 -83q0 -164 -146 -265q97 -77 97 -208q0 -147 -104 -227.5t-275 -80.5q-184 0 -294.5 94t-110.5 249h189q0 -78 62.5 -123.5t156.5 -45.5q81 0 132.5 35t51.5 96q0 29 -14 52.5t-33.5 39t-57 30.5t-65.5 23.5t-78 21.5q-48 12 -77.5 19.5t-75.5 23.5 t-74.5 32.5t-62.5 43t-53.5 57.5t-32.5 74.5t-13 94.5zM290 693q0 -27 8.5 -49.5t19.5 -39t34.5 -32.5t41 -25.5t52.5 -21.5t54.5 -18t60.5 -17q56 -16 91 -28q130 52 130 164q0 28 -9 52t-20.5 41t-36 33.5t-42 26.5t-54 23t-55.5 19t-62 18q-10 3 -22 7l-27 9t-23 8 q-67 -24 -104 -68.5t-37 -101.5z" />
<glyph unicode="&#xa8;" horiz-adv-x="1228" d="M202 1275v237h250v-237h-250zM635 1275v237h250v-237h-250z" />
<glyph unicode="&#xa9;" horiz-adv-x="1710" d="M95 715q0 213 96.5 381.5t269.5 262t392 93.5t393 -94t271 -262t97 -381q0 -159 -57 -296.5t-157 -234.5t-241.5 -152t-305.5 -55q-219 0 -392 94t-269.5 262.5t-96.5 381.5zM242 715q0 -264 171.5 -431.5t439.5 -167.5q177 0 316.5 75.5t218 212.5t78.5 311t-78.5 311 t-218 212.5t-316.5 75.5q-268 0 -439.5 -167.5t-171.5 -431.5zM473 717q0 163 109 270.5t273 107.5q131 0 226.5 -74.5t125.5 -198.5h-149q-28 61 -81 94.5t-122 33.5q-99 0 -164.5 -67t-65.5 -166q0 -97 65.5 -163t164.5 -66q69 0 121 34t81 97h153q-30 -126 -127 -202 t-228 -76q-162 0 -272 108.5t-110 267.5z" />
<glyph unicode="&#xaa;" horiz-adv-x="942" d="M81 1110q0 146 99 248t241 102q141 0 238 -97l21 87h125v-682h-130l-18 85q-97 -95 -236 -95q-143 0 -241.5 102t-98.5 250zM247 1110q0 -86 55.5 -143.5t138.5 -57.5t138 57t55 144q0 86 -55 143.5t-138 57.5t-138.5 -58t-55.5 -143z" />
<glyph unicode="&#xab;" horiz-adv-x="1290" d="M70 531v31l337 416h268l-344 -431l344 -431h-268zM594 531v31l336 416h269l-344 -431l344 -431h-269z" />
<glyph unicode="&#xac;" horiz-adv-x="1220" d="M109 631v212h959v-589h-224v377h-735z" />
<glyph unicode="&#xad;" horiz-adv-x="925" d="M135 464v219h657v-219h-657z" />
<glyph unicode="&#xae;" horiz-adv-x="991" d="M89 1049q0 169 119 287t289 118q169 0 287 -118t118 -287q0 -170 -118 -288.5t-287 -118.5t-288.5 119.5t-119.5 287.5zM180 1049q0 -132 92.5 -223.5t224.5 -91.5t223 91t91 224q0 131 -91.5 222t-222.5 91q-133 0 -225 -91t-92 -222zM352 848v410h175q61 0 101 -40 t40 -101q0 -88 -76 -121l87 -148h-96l-78 136h-60v-136h-93zM445 1067h74q28 0 43.5 14t15.5 38t-16 39t-43 15h-74v-106z" />
<glyph unicode="&#xaf;" horiz-adv-x="1038" d="M199 1301v179h641v-179h-641z" />
<glyph unicode="&#xb0;" horiz-adv-x="768" d="M72 1418q0 125 90.5 214t219.5 89t222 -89t93 -214q0 -126 -92.5 -215t-222.5 -89t-220 88.5t-90 215.5zM224 1418q0 -67 45.5 -112.5t114.5 -45.5q68 0 114.5 45.5t46.5 112.5q0 66 -46.5 111.5t-114.5 45.5q-69 0 -114.5 -45.5t-45.5 -111.5z" />
<glyph unicode="&#xb1;" horiz-adv-x="1234" d="M127 17v206h983v-206h-983zM127 767v209h380v351h222v-351h379v-209h-379v-353h-222v353h-380z" />
<glyph unicode="&#xb4;" horiz-adv-x="1028" d="M205 1233l127 311h242l-194 -311h-175z" />
<glyph unicode="&#xb6;" horiz-adv-x="1310" d="M62 1001q0 187 130.5 310t338.5 123h697v-210h-186v-1354h-205v1354h-209v-1354h-204v715q-162 27 -262 140t-100 276z" />
<glyph unicode="&#xb7;" horiz-adv-x="522" d="M136 559v261h250v-261h-250z" />
<glyph unicode="&#xb8;" horiz-adv-x="794" d="M206 -347h128q45 0 72.5 23t27.5 61t-27.5 61t-72.5 23h-65l-18 20l63 237h135l-43 -154q86 -11 137.5 -63t51.5 -130q0 -90 -67.5 -146t-174.5 -56h-147v124z" />
<glyph unicode="&#xba;" horiz-adv-x="882" d="M81 1109q0 151 103.5 250.5t259.5 99.5q155 0 257.5 -99.5t102.5 -250.5t-102.5 -250.5t-257.5 -99.5q-156 0 -259.5 99.5t-103.5 250.5zM248 1109q0 -86 55 -140.5t141 -54.5t140 54.5t54 140.5t-54.5 140.5t-139.5 54.5q-86 0 -141 -54.5t-55 -140.5z" />
<glyph unicode="&#xbb;" horiz-adv-x="1290" d="M91 116l344 431l-344 431h269l336 -416v-31l-336 -415h-269zM615 116l344 431l-344 431h268l337 -416v-31l-337 -415h-268z" />
<glyph unicode="&#xbc;" horiz-adv-x="1435" d="M47 1286v148h300v-790h-172v642h-128zM126 -61l827 1556h178l-827 -1556h-178zM770 152v30l261 607h166l-213 -493h174l30 193h124v-193h72v-144h-72v-152h-159v152h-383z" />
<glyph unicode="&#xbd;" horiz-adv-x="1478" d="M47 1286v148h300v-790h-172v642h-128zM126 -61l827 1556h178l-827 -1556h-178zM850 1v38q171 197 245 289t100 140.5t26 90.5q0 44 -25.5 70.5t-66.5 26.5q-44 0 -71 -27t-27 -73v-17h-166v16q0 115 71 183.5t191 68.5q117 0 191 -68.5t74 -177.5q0 -75 -46.5 -156.5 t-186.5 -246.5h251v-157h-560z" />
<glyph unicode="&#xbe;" horiz-adv-x="1658" d="M64 891h160q3 -49 34 -79.5t79 -30.5q53 0 86 33.5t33 87.5q0 53 -35.5 84.5t-93.5 31.5h-114v31l145 238h-275v147h507v-33l-166 -259q88 -20 141 -86.5t53 -159.5q0 -116 -79.5 -191t-201.5 -75q-117 0 -193.5 73t-79.5 188zM351 -61l827 1556h178l-827 -1556h-178z M995 152v30l261 607h166l-213 -493h174l30 193h124v-193h72v-144h-72v-152h-159v152h-383z" />
<glyph unicode="&#xbf;" horiz-adv-x="1052" d="M77 27q0 59 13 110t30 85.5t48 70t53 54.5t60 49q37 30 50 41.5t40.5 39.5t38.5 48.5t21 52.5t10 67v45h228v-45q0 -59 -13.5 -110t-30 -84.5t-49.5 -69t-53.5 -53t-60.5 -48.5q-41 -31 -63 -50t-49 -51t-39 -69t-12 -83q0 -102 67.5 -164.5t170.5 -62.5 q101 0 173.5 59.5t76.5 161.5h214q-3 -102 -42.5 -185.5t-104.5 -136.5t-146.5 -81t-170.5 -28q-125 0 -228.5 50.5t-167.5 151.5t-64 235zM430 845v261h250v-261h-250z" />
<glyph unicode="&#xc0;" d="M27 0l576 1434h222l593 -1434h-256l-123 312h-640l-122 -312h-250zM435 1876h242l134 -290h-175zM481 523h476l-240 604z" />
<glyph unicode="&#xc1;" d="M27 0l576 1434h222l593 -1434h-256l-123 312h-640l-122 -312h-250zM481 523h476l-240 604zM615 1586l134 290h242l-201 -290h-175z" />
<glyph unicode="&#xc2;" d="M27 0l576 1434h222l593 -1434h-256l-123 312h-640l-122 -312h-250zM348 1586l239 290h259l240 -290h-198l-172 168l-171 -168h-197zM481 523h476l-240 604z" />
<glyph unicode="&#xc3;" d="M27 0l576 1434h222l593 -1434h-255l-124 312h-640l-122 -312h-250zM345 1591v26q0 121 57.5 192t159.5 71q41 0 78.5 -14t55.5 -27t49 -39q23 -21 36.5 -32t35.5 -20.5t45 -9.5q39 0 61.5 29.5t22.5 82.5v19h135v-23q0 -122 -58 -193t-158 -71q-45 0 -86 15.5t-63 30.5 t-54 42q-24 19 -34 27t-29 17t-35 9q-37 0 -61.5 -30.5t-24.5 -81.5v-20h-133zM481 523h476l-240 604z" />
<glyph unicode="&#xc4;" d="M27 0l576 1434h222l593 -1434h-256l-123 312h-640l-122 -312h-250zM363 1594v234h249v-234h-249zM481 523h476l-240 604zM822 1594v234h249v-234h-249z" />
<glyph unicode="&#xc5;" d="M27 0l576 1434h222l593 -1434h-256l-123 312h-640l-122 -312h-250zM456 1793q0 109 72.5 177t188.5 68q115 0 187.5 -68t72.5 -177q0 -108 -72.5 -177t-187.5 -69q-116 0 -188.5 69t-72.5 177zM481 523h476l-240 604zM590 1793q0 -53 35.5 -87.5t91.5 -34.5 q55 0 90.5 34.5t35.5 87.5q0 54 -35.5 87.5t-90.5 33.5q-57 0 -92 -33.5t-35 -87.5z" />
<glyph unicode="&#xc6;" horiz-adv-x="1863" d="M-33 0l851 1434h922v-220h-594v-375h541v-216h-541v-401h617v-222h-854v296h-492l-174 -296h-276zM541 507h368v624z" />
<glyph unicode="&#xc7;" horiz-adv-x="1585" d="M91 716q0 158 56 296.5t153 236.5t234 154t294 56q254 0 442 -146t244 -388h-238q-51 143 -170 224.5t-278 81.5q-216 0 -357 -145.5t-141 -369.5t141 -369t357 -145q164 0 284 87t169 240h239q-52 -238 -223.5 -386.5t-410.5 -165.5l-14 -52q83 -15 132 -66t49 -125 q0 -90 -73.5 -147.5t-187.5 -57.5h-143v127h141q42 0 68.5 22t26.5 58q0 35 -27 57.5t-70 22.5h-67l-18 24l34 139q-187 21 -334 120.5t-229.5 260.5t-82.5 356z" />
<glyph unicode="&#xc8;" horiz-adv-x="1138" d="M182 0v1434h833v-221h-597v-374h544v-216h-544v-401h619v-222h-855zM314 1876h242l134 -290h-175z" />
<glyph unicode="&#xc9;" horiz-adv-x="1138" d="M182 0v1434h833v-221h-597v-374h544v-216h-544v-401h619v-222h-855zM494 1586l134 290h242l-201 -290h-175z" />
<glyph unicode="&#xca;" horiz-adv-x="1138" d="M182 0v1434h833v-221h-597v-374h544v-216h-544v-401h619v-222h-855zM227 1586l239 290h259l240 -290h-198l-172 168l-170 -168h-198z" />
<glyph unicode="&#xcb;" horiz-adv-x="1138" d="M182 0v1434h833v-221h-597v-374h544v-216h-544v-401h619v-222h-855zM242 1594v234h250v-234h-250zM701 1594v234h250v-234h-250z" />
<glyph unicode="&#xcc;" horiz-adv-x="600" d="M52 1876h237l92 -290h-178zM182 0v1434h236v-1434h-236z" />
<glyph unicode="&#xcd;" horiz-adv-x="600" d="M182 0v1434h236v-1434h-236zM201 1586l92 290h232l-153 -290h-171z" />
<glyph unicode="&#xce;" horiz-adv-x="600" d="M-28 1586l212 290h230l213 -290h-189l-140 166l-140 -166h-186zM182 0v1434h236v-1434h-236z" />
<glyph unicode="&#xcf;" horiz-adv-x="600" d="M26 1594v234h225v-234h-225zM182 0v1434h236v-1434h-236zM351 1594v234h225v-234h-225z" />
<glyph unicode="&#xd0;" horiz-adv-x="1566" d="M40 619v199h202v616h506q156 0 291.5 -54t231 -148.5t150 -228t54.5 -286.5q0 -205 -93.5 -369t-259.5 -256t-374 -92h-506v619h-202zM477 219h264q217 0 355 140.5t138 357.5t-138 357t-355 140h-264v-396h362v-199h-362v-400z" />
<glyph unicode="&#xd1;" horiz-adv-x="1538" d="M182 0v1434h213l730 -1007v1007h230v-1434h-197l-745 1024v-1024h-231zM403 1591v26q0 121 58 192t160 71q41 0 78 -14t55 -26.5t49 -39.5q23 -21 36.5 -32t35.5 -20.5t45 -9.5q39 0 62 29.5t23 82.5v19h135v-23q0 -121 -58.5 -192.5t-158.5 -71.5q-45 0 -86 15.5 t-62 30.5t-54 42q-24 19 -34 27t-29 17t-35 9q-37 0 -61.5 -30.5t-24.5 -81.5v-20h-134z" />
<glyph unicode="&#xd2;" horiz-adv-x="1691" d="M90 717q0 210 98 380t271.5 267t387.5 97t387 -97t270.5 -267t97.5 -380t-97.5 -380t-270.5 -267t-387 -97t-387.5 97t-271.5 267t-98 380zM330 717q0 -145 67 -263.5t185.5 -186t264.5 -67.5q222 0 369 147.5t147 369.5t-147 369.5t-369 147.5q-146 0 -264.5 -67.5 t-185.5 -186t-67 -263.5zM564 1876h242l134 -290h-175z" />
<glyph unicode="&#xd3;" horiz-adv-x="1691" d="M90 717q0 210 98 380t271.5 267t387.5 97t387 -97t270.5 -267t97.5 -380t-97.5 -380t-270.5 -267t-387 -97t-387.5 97t-271.5 267t-98 380zM330 717q0 -145 67 -263.5t185.5 -186t264.5 -67.5q222 0 369 147.5t147 369.5t-147 369.5t-369 147.5q-146 0 -264.5 -67.5 t-185.5 -186t-67 -263.5zM744 1586l134 290h242l-201 -290h-175z" />
<glyph unicode="&#xd4;" horiz-adv-x="1691" d="M90 717q0 210 98 380t271.5 267t387.5 97t387 -97t270.5 -267t97.5 -380t-97.5 -380t-270.5 -267t-387 -97t-387.5 97t-271.5 267t-98 380zM330 717q0 -145 67 -263.5t185.5 -186t264.5 -67.5q222 0 369 147.5t147 369.5t-147 369.5t-369 147.5q-146 0 -264.5 -67.5 t-185.5 -186t-67 -263.5zM477 1586l239 290h259l240 -290h-198l-172 168l-170 -168h-198z" />
<glyph unicode="&#xd5;" horiz-adv-x="1691" d="M90 717q0 210 98 380t271.5 267t387.5 97t387 -97t270.5 -267t97.5 -380t-97.5 -380t-270.5 -267t-387 -97t-387.5 97t-271.5 267t-98 380zM330 717q0 -145 67 -263.5t185.5 -186t264.5 -67.5q222 0 369 147.5t147 369.5t-147 369.5t-369 147.5q-146 0 -264.5 -67.5 t-185.5 -186t-67 -263.5zM474 1591v26q0 121 57.5 192t159.5 71q41 0 78.5 -14t55.5 -27t49 -39q23 -21 36.5 -32t35.5 -20.5t45 -9.5q39 0 61.5 29.5t22.5 82.5v19h136v-23q0 -121 -58.5 -192.5t-158.5 -71.5q-45 0 -86 15.5t-62 30.5t-54 42q-23 18 -34 26.5t-30 17.5 t-35 9q-37 0 -61 -30.5t-24 -81.5v-20h-134z" />
<glyph unicode="&#xd6;" horiz-adv-x="1691" d="M90 717q0 210 98 380t271.5 267t387.5 97t387 -97t270.5 -267t97.5 -380t-97.5 -380t-270.5 -267t-387 -97t-387.5 97t-271.5 267t-98 380zM330 717q0 -145 67 -263.5t185.5 -186t264.5 -67.5q222 0 369 147.5t147 369.5t-147 369.5t-369 147.5q-146 0 -264.5 -67.5 t-185.5 -186t-67 -263.5zM492 1594v234h249v-234h-249zM951 1594v234h250v-234h-250z" />
<glyph unicode="&#xd7;" horiz-adv-x="1083" d="M101 394l291 296l-291 294l155 148l285 -290l287 290l153 -148l-290 -294l290 -296l-151 -147l-289 292l-288 -292z" />
<glyph unicode="&#xd8;" horiz-adv-x="1712" d="M89 717q0 156 58 293.5t158 235.5t240.5 155t299.5 57q156 0 299 -58l95 161h254l-160 -263q135 -101 211 -253.5t76 -333.5q0 -207 -97.5 -375t-270 -263.5t-385.5 -95.5q-157 0 -294 54l-95 -158h-255l160 257q-138 100 -216 253t-78 334zM329 719q0 -118 48 -220 t133 -172l521 874q-87 30 -186 30q-220 0 -368 -147t-148 -365zM689 231q86 -28 172 -28q146 0 264 66t185.5 182.5t67.5 260.5q0 117 -45 217.5t-125 170.5z" />
<glyph unicode="&#xd9;" horiz-adv-x="1484" d="M167 536v898h236v-883q0 -158 95 -255t245 -97q149 0 243.5 97t94.5 255v883h237v-898q0 -163 -75 -292t-206 -200t-294 -71t-294.5 71t-206.5 200t-75 292zM460 1876h242l134 -290h-175z" />
<glyph unicode="&#xda;" horiz-adv-x="1484" d="M167 536v898h236v-883q0 -158 95 -255t245 -97q149 0 243.5 97t94.5 255v883h237v-898q0 -163 -75 -292t-206 -200t-294 -71t-294.5 71t-206.5 200t-75 292zM640 1586l134 290h242l-201 -290h-175z" />
<glyph unicode="&#xdb;" horiz-adv-x="1484" d="M167 536v898h236v-883q0 -158 95 -255t245 -97q149 0 243.5 97t94.5 255v883h237v-898q0 -163 -75 -292t-206 -200t-294 -71t-294.5 71t-206.5 200t-75 292zM373 1586l239 290h259l240 -290h-198l-172 168l-170 -168h-198z" />
<glyph unicode="&#xdc;" horiz-adv-x="1484" d="M167 536v898h236v-883q0 -158 95 -254.5t245 -96.5q149 0 243.5 96.5t94.5 254.5v883h237v-898q0 -163 -75 -292t-206 -200t-294 -71t-294.5 71t-206.5 200t-75 292zM388 1594v234h250v-234h-250zM847 1594v234h250v-234h-250z" />
<glyph unicode="&#xdd;" horiz-adv-x="1366" d="M47 1434h254l383 -642l384 642h254l-519 -860v-574h-242v575zM582 1586l134 290h242l-201 -290h-175z" />
<glyph unicode="&#xde;" horiz-adv-x="1282" d="M182 0v1434h236v-242h294q214 0 351.5 -134t137.5 -341q0 -209 -137 -342.5t-352 -133.5h-294v-241h-236zM418 462h283q115 0 188 71t73 184t-73 183.5t-188 70.5h-283v-509z" />
<glyph unicode="&#xdf;" horiz-adv-x="1259" d="M162 0v1012q0 242 131 378t363 136q200 0 330 -116t130 -294q0 -102 -41.5 -187t-116.5 -136q105 -48 161 -141t56 -221q0 -194 -137 -312.5t-360 -118.5h-137v214h136q124 0 199.5 64t75.5 170q0 104 -75.5 168t-201.5 64h-116v203h95q113 0 184 62t71 160 q0 95 -70 155.5t-180 60.5q-126 0 -198 -80t-72 -219v-1022h-227z" />
<glyph unicode="&#xe0;" horiz-adv-x="1425" d="M81 554q0 164 75 296.5t207 207.5t294 75q120 0 224 -43t180 -122l27 139l175 -1v-1105h-183l-22 134q-76 -77 -179 -119.5t-222 -42.5q-162 0 -294 75.5t-207 209t-75 296.5zM312 554q0 -156 103 -259.5t259 -103.5t258.5 103.5t102.5 259.5t-102.5 259t-258.5 103 t-259 -103.5t-103 -258.5zM431 1544h242l127 -311h-175z" />
<glyph unicode="&#xe1;" horiz-adv-x="1425" d="M81 554q0 164 75 296.5t207 207.5t294 75q120 0 224 -43t180 -122l27 139l175 -1v-1105h-183l-22 134q-76 -77 -179 -119.5t-222 -42.5q-162 0 -294 75.5t-207 209t-75 296.5zM312 554q0 -156 103 -259.5t259 -103.5t258.5 103.5t102.5 259.5t-102.5 259t-258.5 103 t-259 -103.5t-103 -258.5zM580 1233l127 311h242l-194 -311h-175z" />
<glyph unicode="&#xe2;" horiz-adv-x="1425" d="M81 554q0 164 75 296.5t207 207.5t294 75q120 0 224 -43t180 -122l27 138h175v-1105h-183l-22 134q-76 -77 -179 -119.5t-222 -42.5q-162 0 -294 75.5t-207 209t-75 296.5zM312 554q0 -156 103 -259.5t259 -103.5t258.5 103.5t102.5 259.5t-102.5 259t-258.5 103 t-259 -103.5t-103 -258.5zM328 1233l240 311h258l242 -311h-198l-173 180l-171 -180h-198z" />
<glyph unicode="&#xe3;" horiz-adv-x="1425" d="M81 553q0 164 75 297t207 208t294 75q120 0 224 -43t180 -122l27 138h175v-1105h-183l-22 134q-76 -77 -179 -119.5t-222 -42.5q-162 0 -294 75.5t-207 208.5t-75 296zM312 553q0 -155 103 -258.5t259 -103.5t258.5 103t102.5 259t-102.5 259.5t-258.5 103.5t-259 -103.5 t-103 -259.5zM329 1249v25q0 120 57 190t157 70q41 0 78 -14t56.5 -28t48.5 -40q21 -19 35 -30t35 -20t43 -9q37 0 59.5 30.5t22.5 80.5v19h134v-23q0 -119 -57.5 -189.5t-156.5 -70.5q-43 0 -84 16t-59 29t-53 41q-2 2 -10 8t-10.5 8t-9.5 7t-10 7t-9.5 6t-10 5.5t-9.5 4 t-10.5 3.5t-10 2t-10.5 1q-36 0 -60 -30.5t-24 -78.5v-20h-132z" />
<glyph unicode="&#xe4;" horiz-adv-x="1425" d="M81 554q0 164 75 296.5t207 207.5t294 75q120 0 224 -43t180 -122l27 139l175 -1v-1105h-183l-22 134q-76 -77 -179 -119.5t-222 -42.5q-162 0 -294 75.5t-207 209t-75 296.5zM312 554q0 -156 103 -259.5t259 -103.5t258.5 103.5t102.5 259.5t-102.5 259t-258.5 103 t-259 -103.5t-103 -258.5zM353 1275v237h250v-237h-250zM786 1275v237h250v-237h-250z" />
<glyph unicode="&#xe5;" horiz-adv-x="1425" d="M81 554q0 164 75 296.5t207 207.5t294 75q120 0 224 -43t180 -122l27 138h175v-1105h-183l-22 134q-76 -77 -179 -119.5t-222 -42.5q-162 0 -294 75.5t-207 209t-75 296.5zM312 554q0 -156 103 -259.5t259 -103.5t258.5 103.5t102.5 259.5t-102.5 259t-258.5 103 t-259 -103.5t-103 -258.5zM450 1435q0 103 68 167t177 64t177.5 -64t68.5 -167q0 -102 -68.5 -167t-177.5 -65t-177 65t-68 167zM576 1435q0 -50 33.5 -82t85.5 -32t86 32t34 82q0 51 -34 83t-86 32t-85.5 -32t-33.5 -83z" />
<glyph unicode="&#xe6;" horiz-adv-x="2228" d="M81 553q0 163 75 295.5t207 207.5t294 75q226 0 380 -154l11 132h150l11 -141q153 163 382 163q159 0 287.5 -76t200 -208.5t71.5 -294.5q0 -42 -4 -77h-902q22 -132 113 -208.5t229 -76.5q99 0 177 41t121 117h239q-65 -174 -207 -274t-325 -100q-113 0 -211.5 42.5 t-170.5 120.5l-10 -140h-154l-10 130q-154 -152 -378 -152q-162 0 -294 76t-207 208.5t-75 293.5zM313 553q0 -156 101 -258.5t255 -102.5q155 0 255.5 102t100.5 259t-100.5 259t-255.5 102q-154 0 -255 -102.5t-101 -258.5zM1250 660h673q-29 125 -119 196.5t-218 71.5 q-130 0 -219 -72t-117 -196z" />
<glyph unicode="&#xe7;" horiz-adv-x="1273" d="M81 554q0 163 75.5 295.5t208.5 208t296 75.5q204 0 353 -115t195 -306h-225q-44 95 -130 149.5t-194 54.5q-149 0 -248.5 -104t-99.5 -258t100 -259t248 -105q109 0 193.5 56t129.5 157h229q-43 -184 -182 -300.5t-330 -128.5l-14 -50q86 -11 137.5 -63t51.5 -130 q0 -90 -67.5 -146t-174.5 -56h-147v124h128q45 0 72.5 23t27.5 61t-27.5 61t-72.5 23h-65l-18 20l37 139q-214 32 -350.5 191.5t-136.5 382.5z" />
<glyph unicode="&#xe8;" horiz-adv-x="1292" d="M81 553q0 163 74 296t204 208.5t290 75.5q165 0 295 -78.5t199.5 -211t69.5 -293.5q0 -32 -5 -74h-898q21 -134 112 -212t227 -78q98 0 175.5 43t121.5 119h240q-66 -175 -209 -275t-328 -100q-242 0 -405 166.5t-163 413.5zM316 660h669q-31 126 -120.5 197t-215.5 71 q-127 0 -216 -72t-117 -196zM382 1544h242l127 -311h-175z" />
<glyph unicode="&#xe9;" horiz-adv-x="1292" d="M81 553q0 163 74 296t204 208.5t290 75.5q165 0 295 -78.5t199.5 -211t69.5 -293.5q0 -32 -5 -74h-898q21 -134 112 -212t227 -78q98 0 175.5 43t121.5 119h240q-66 -175 -209 -275t-328 -100q-242 0 -405 166.5t-163 413.5zM316 660h669q-31 126 -120.5 197t-215.5 71 q-127 0 -216 -72t-117 -196zM530 1233l127 311h242l-193 -311h-176z" />
<glyph unicode="&#xea;" horiz-adv-x="1292" d="M81 553q0 163 74 296t204 208.5t290 75.5q165 0 295 -78.5t199.5 -211t69.5 -293.5q0 -32 -5 -74h-898q21 -134 112 -212t227 -78q98 0 175.5 43t121.5 119h240q-66 -175 -209 -275t-328 -100q-242 0 -405 166.5t-163 413.5zM279 1233l239 311h259l241 -311h-197 l-173 180l-171 -180h-198zM316 660h669q-31 126 -120.5 197t-215.5 71q-127 0 -216 -72t-117 -196z" />
<glyph unicode="&#xeb;" horiz-adv-x="1292" d="M81 553q0 163 74 296t204 208.5t290 75.5q165 0 295 -78.5t199.5 -211t69.5 -293.5q0 -32 -5 -74h-898q21 -134 112 -212t227 -78q98 0 175.5 43t121.5 119h240q-66 -175 -209 -275t-328 -100q-242 0 -405 166.5t-163 413.5zM304 1275v237h249v-237h-249zM316 660h669 q-31 126 -120.5 197t-215.5 71q-127 0 -216 -72t-117 -196zM737 1275v237h249v-237h-249z" />
<glyph unicode="&#xec;" horiz-adv-x="550" d="M31 1544h237l92 -311h-177zM162 0v1106h227v-1106h-227z" />
<glyph unicode="&#xed;" horiz-adv-x="550" d="M162 0v1106h227v-1106h-227zM177 1233l92 311h237l-151 -311h-178z" />
<glyph unicode="&#xee;" horiz-adv-x="550" d="M-52 1233l212 311h231l212 -311h-188l-140 178l-140 -178h-187zM162 0v1106h227v-1106h-227z" />
<glyph unicode="&#xef;" horiz-adv-x="550" d="M-1 1275v237h217v-237h-217zM162 0v1106h227v-1106h-227zM349 1274v236h217v-236h-217z" />
<glyph unicode="&#xf0;" horiz-adv-x="1323" d="M82 523q0 234 152.5 383.5t383.5 149.5q204 0 347 -126q-27 128 -102.5 226t-191.5 159l-212 -207l-94 90l174 170q-125 37 -265 37v194q240 0 423 -77l142 138l92 -92l-112 -109q194 -122 295 -340t102 -513q0 -288 -155 -459.5t-416 -171.5q-251 0 -407 152t-156 396z M302 525q0 -146 97.5 -243.5t245.5 -97.5q147 0 245 97.5t98 243.5q-1 147 -99 243.5t-244 96.5q-148 0 -245.5 -97t-97.5 -243z" />
<glyph unicode="&#xf1;" horiz-adv-x="1314" d="M162 0v1106h158l45 -154q64 85 163 132t219 47q192 0 306 -129t114 -336v-666h-227v620q0 151 -64.5 229t-189.5 78q-130 0 -213.5 -94.5t-83.5 -240.5v-592h-227zM309 1249v25q0 120 57 190t157 70q41 0 78 -14t56.5 -28t48.5 -40q21 -19 35 -30t35 -20t43 -9 q37 0 59.5 30.5t22.5 80.5v19h134v-23q0 -119 -57.5 -189.5t-156.5 -70.5q-43 0 -84 16t-59 29t-53 41q-2 2 -10 8t-10.5 8t-9.5 7t-10 7t-9.5 6t-10 5.5t-9.5 4t-10.5 3.5t-10 2t-10.5 1q-36 0 -60 -30.5t-24 -78.5v-20h-132z" />
<glyph unicode="&#xf2;" horiz-adv-x="1343" d="M81 553q0 165 77 297.5t212 207.5t302 75t302 -75t212 -208t77 -297t-77 -296.5t-212 -208t-302 -75.5t-302 75.5t-212 208t-77 296.5zM312 553q0 -159 101.5 -261t258.5 -102t258.5 102t101.5 261t-101.5 261t-258.5 102t-258.5 -102t-101.5 -261zM407 1544h242 l127 -311h-175z" />
<glyph unicode="&#xf3;" horiz-adv-x="1343" d="M81 553q0 165 77 297.5t212 207.5t302 75t302 -75t212 -208t77 -297t-77 -296.5t-212 -208t-302 -75.5t-302 75.5t-212 208t-77 296.5zM312 553q0 -159 101.5 -261t258.5 -102t258.5 102t101.5 261t-101.5 261t-258.5 102t-258.5 -102t-101.5 -261zM556 1233l127 311h242 l-194 -311h-175z" />
<glyph unicode="&#xf4;" horiz-adv-x="1343" d="M81 553q0 165 77 297.5t212 207.5t302 75t302 -75t212 -208t77 -297t-77 -296.5t-212 -208t-302 -75.5t-302 75.5t-212 208t-77 296.5zM304 1233l240 311h258l242 -311h-198l-173 180l-171 -180h-198zM312 553q0 -159 101.5 -261t258.5 -102t258.5 102t101.5 261 t-101.5 261t-258.5 102t-258.5 -102t-101.5 -261z" />
<glyph unicode="&#xf5;" horiz-adv-x="1343" d="M81 553q0 165 77 297.5t212 207.5t302 75t302 -75t212 -208t77 -297t-77 -296.5t-212 -208t-302 -75.5t-302 75.5t-212 208t-77 296.5zM304 1249v25q0 119 57.5 189.5t157.5 70.5q41 0 78 -14t56.5 -28t48.5 -40q22 -20 35 -30t34 -19.5t43 -9.5q38 0 60.5 30.5 t22.5 80.5v19h134v-23q0 -119 -57.5 -189.5t-156.5 -70.5q-43 0 -83.5 15.5t-59.5 29t-53 40.5q-2 2 -14 11.5t-15 11.5t-13 9t-15 9t-13 6t-15 5t-15 1q-36 0 -60 -30.5t-24 -78.5v-20h-133zM312 553q0 -159 101.5 -261t258.5 -102t258.5 102t101.5 261t-101.5 261 t-258.5 102t-258.5 -102t-101.5 -261z" />
<glyph unicode="&#xf6;" horiz-adv-x="1343" d="M81 553q0 165 77 297.5t212 207.5t302 75t302 -75t212 -208t77 -297t-77 -296.5t-212 -208t-302 -75.5t-302 75.5t-212 208t-77 296.5zM312 553q0 -159 101.5 -261t258.5 -102t258.5 102t101.5 261t-101.5 261t-258.5 102t-258.5 -102t-101.5 -261zM329 1275v237h250 v-237h-250zM762 1275v237h250v-237h-250z" />
<glyph unicode="&#xf7;" horiz-adv-x="1187" d="M102 586v205h983v-205h-983zM471 308q0 51 35.5 86t87.5 35q51 0 87 -35t36 -86q0 -52 -35.5 -87.5t-87.5 -35.5t-87.5 35.5t-35.5 87.5zM471 1072q0 50 35.5 85.5t87.5 35.5t87.5 -35.5t35.5 -85.5q0 -52 -35.5 -87.5t-87.5 -35.5t-87.5 35.5t-35.5 87.5z" />
<glyph unicode="&#xf8;" horiz-adv-x="1357" d="M80 555q0 162 76 293.5t210 206.5t298 75q104 0 200 -34l72 135h209l-112 -210q114 -78 178.5 -200t64.5 -270q0 -121 -44.5 -227.5t-121 -182.5t-184 -120t-230.5 -44q-113 0 -216 39l-78 -141h-209l122 217q-110 77 -172.5 197.5t-62.5 265.5zM300 555q0 -180 121 -282 l349 637q-50 15 -106 15q-160 0 -262 -104.5t-102 -265.5zM578 201q57 -19 118 -19q157 0 259 104t102 265q0 181 -129 285z" />
<glyph unicode="&#xf9;" horiz-adv-x="1294" d="M145 467v639h227v-607q0 -144 74 -226.5t202 -82.5t201.5 83t73.5 226v607h227v-639q0 -224 -137 -359t-365 -135t-365.5 135t-137.5 359zM384 1544h242l127 -311h-176z" />
<glyph unicode="&#xfa;" horiz-adv-x="1294" d="M145 467v639h227v-607q0 -144 74 -226.5t202 -82.5t201.5 83t73.5 226v607h227v-639q0 -224 -137 -359t-365 -135t-365.5 135t-137.5 359zM532 1233l127 311h242l-194 -311h-175z" />
<glyph unicode="&#xfb;" horiz-adv-x="1294" d="M145 467v639h227v-607q0 -144 74 -226.5t202 -82.5t201.5 83t73.5 226v607h227v-639q0 -224 -137 -359t-365 -135t-365.5 135t-137.5 359zM281 1233l239 311h259l241 -311h-198l-172 180l-172 -180h-197z" />
<glyph unicode="&#xfc;" horiz-adv-x="1294" d="M145 467v639h227v-607q0 -144 74 -226.5t202 -82.5t201.5 83t73.5 226v607h227v-639q0 -224 -137 -359t-365 -135t-365.5 135t-137.5 359zM306 1275v237h249v-237h-249zM738 1275v237h250v-237h-250z" />
<glyph unicode="&#xfd;" horiz-adv-x="1214" d="M23 1106h247l351 -771l330 771h242l-508 -1126q-95 -211 -194 -293.5t-266 -82.5h-113v204h95q108 0 159 42.5t113 177.5l25 52zM496 1233l127 311h242l-193 -311h-176z" />
<glyph unicode="&#xfe;" horiz-adv-x="1413" d="M162 -396v1895h227v-502q153 134 369 134q163 0 294.5 -75t205 -207.5t73.5 -295.5q0 -123 -43.5 -230.5t-118.5 -184.5t-182 -121.5t-229 -44.5q-214 0 -369 136v-504h-227zM378 553q0 -156 103 -259.5t259 -103.5t258.5 103.5t102.5 259.5q0 155 -102.5 258t-258.5 103 t-259 -103t-103 -258z" />
<glyph unicode="&#xff;" horiz-adv-x="1214" d="M23 1106h247l351 -771l330 771h242l-508 -1126q-95 -211 -194 -293.5t-266 -82.5h-113v204h95q108 0 159 42.5t113 177.5l25 52zM270 1275v237h249v-237h-249zM703 1275v237h249v-237h-249z" />
<glyph unicode="&#x152;" horiz-adv-x="1966" d="M90 717q0 155 55 292.5t150 236.5t226.5 156.5t279.5 57.5q115 0 216 -26h826v-218h-600v-379h546v-212h-546v-406h622v-219h-852q-107 -27 -212 -27q-144 0 -275 56.5t-227 154.5t-152.5 237t-56.5 296zM330 717q0 -235 140 -374.5t362 -139.5q86 0 174 15v996 q-102 21 -183 21q-209 0 -351 -149t-142 -369z" />
<glyph unicode="&#x153;" horiz-adv-x="2234" d="M81 553q0 165 77 297.5t212 207.5t301 75q146 0 267.5 -62.5t199.5 -172.5q76 110 195 172.5t260 62.5q160 0 289.5 -76t201.5 -208.5t72 -296.5q0 -41 -4 -76h-900q21 -134 112 -211t229 -77q99 0 176.5 41.5t120.5 118.5h239q-66 -176 -208.5 -275.5t-327.5 -99.5 q-141 0 -260 63t-195 173q-78 -110 -199.5 -172t-267.5 -62q-166 0 -301.5 75t-212 207.5t-76.5 295.5zM312 553q0 -159 101.5 -261t257.5 -102q155 0 256 102t101 261t-101 261t-256 102q-156 0 -257.5 -102t-101.5 -261zM1257 659h673q-29 126 -119 198t-218 72 q-129 0 -218.5 -72.5t-117.5 -197.5z" />
<glyph unicode="&#x178;" horiz-adv-x="1366" d="M47 1434h254l383 -642l384 642h254l-519 -860v-574h-242v575zM330 1594v234h249v-234h-249zM789 1594v234h249v-234h-249z" />
<glyph unicode="&#x2c6;" horiz-adv-x="1228" d="M278 1233l239 311h258l242 -311h-198l-173 180l-171 -180h-197z" />
<glyph unicode="&#x2dc;" horiz-adv-x="1228" d="M244 1249v25q0 120 57 190t157 70q41 0 78 -14t56.5 -28t48.5 -40q21 -19 35 -30t35 -20t43 -9q37 0 59.5 30.5t22.5 80.5v19h134v-23q0 -119 -57.5 -189.5t-156.5 -70.5q-43 0 -84 16t-59 29t-53 41q-2 2 -10 8t-10.5 8t-9.5 7t-10 7t-9.5 6t-10 5.5t-9.5 4t-10.5 3.5 t-10 2t-10.5 1q-36 0 -60 -30.5t-24 -78.5v-20h-132z" />
<glyph unicode="&#x2000;" horiz-adv-x="1019" />
<glyph unicode="&#x2001;" horiz-adv-x="2038" />
<glyph unicode="&#x2002;" horiz-adv-x="1019" />
<glyph unicode="&#x2003;" horiz-adv-x="2038" />
<glyph unicode="&#x2004;" horiz-adv-x="679" />
<glyph unicode="&#x2005;" horiz-adv-x="509" />
<glyph unicode="&#x2006;" horiz-adv-x="339" />
<glyph unicode="&#x2007;" horiz-adv-x="339" />
<glyph unicode="&#x2008;" horiz-adv-x="254" />
<glyph unicode="&#x2009;" horiz-adv-x="407" />
<glyph unicode="&#x200a;" horiz-adv-x="113" />
<glyph unicode="&#x2010;" horiz-adv-x="925" d="M135 464v219h657v-219h-657z" />
<glyph unicode="&#x2011;" horiz-adv-x="925" d="M135 464v219h657v-219h-657z" />
<glyph unicode="&#x2012;" horiz-adv-x="925" d="M135 464v219h657v-219h-657z" />
<glyph unicode="&#x2013;" horiz-adv-x="1310" d="M135 464v219h1041v-219h-1041z" />
<glyph unicode="&#x2014;" horiz-adv-x="1841" d="M135 464v219h1572v-219h-1572z" />
<glyph unicode="&#x2018;" horiz-adv-x="495" d="M117 1000v240q0 132 65 212t181 102v-118q-128 -30 -128 -177h140v-259h-258z" />
<glyph unicode="&#x2019;" horiz-adv-x="483" d="M126 1217v260h258v-240q0 -132 -65 -211.5t-181 -102.5v118q128 30 128 176h-140z" />
<glyph unicode="&#x201a;" horiz-adv-x="528" d="M135 0v260h258v-241q0 -132 -65 -211t-181 -102v117q128 30 128 177h-140z" />
<glyph unicode="&#x201c;" horiz-adv-x="899" d="M117 1003v240q0 132 65 211.5t181 102.5v-118q-128 -30 -128 -177h140v-259h-258zM520 1003v240q0 132 65 211.5t181 102.5v-118q-128 -30 -128 -177h140v-259h-258z" />
<glyph unicode="&#x201d;" horiz-adv-x="886" d="M126 1217v260h258v-240q0 -132 -65 -211.5t-181 -102.5v118q128 30 128 176h-140zM530 1217v260h258v-240q0 -132 -65 -211.5t-181 -102.5v118q128 30 128 176h-140z" />
<glyph unicode="&#x201e;" horiz-adv-x="931" d="M135 0v260h258v-241q0 -132 -65 -211t-181 -102v117q128 30 128 177h-140zM539 0v260h258v-241q0 -132 -65 -211t-181 -102v117q128 30 128 177h-140z" />
<glyph unicode="&#x2022;" horiz-adv-x="745" d="M160 600q0 92 61 152.5t152 60.5q92 0 152.5 -60.5t60.5 -152.5q0 -91 -60.5 -152t-152.5 -61q-91 0 -152 61t-61 152z" />
<glyph unicode="&#x2026;" horiz-adv-x="1257" d="M133 0v261h250v-261h-250zM504 0v261h249v-261h-249zM874 0v261h250v-261h-250z" />
<glyph unicode="&#x202f;" horiz-adv-x="407" />
<glyph unicode="&#x2039;" horiz-adv-x="765" d="M70 531v31l337 416h268l-344 -431l344 -431h-268z" />
<glyph unicode="&#x203a;" horiz-adv-x="765" d="M91 116l344 431l-344 431h269l336 -416v-31l-336 -415h-269z" />
<glyph unicode="&#x205f;" horiz-adv-x="509" />
<glyph unicode="&#x20ac;" horiz-adv-x="1329" d="M69 421l43 180h137q-4 37 -4 85q0 38 3 75h-174l43 179h170q74 211 257 335.5t411 124.5q161 0 304 -59l-46 -188q-109 47 -243 47q-145 0 -264 -69t-183 -191h629l-44 -179h-641q-4 -32 -4 -75q0 -44 6 -85h599l-43 -180h-497q65 -118 182.5 -184t259.5 -66 q123 0 227 43v-200q-117 -42 -247 -42q-224 0 -403.5 122t-255.5 327h-222z" />
<glyph unicode="&#x2122;" horiz-adv-x="1339" d="M63 1337v97h446v-97h-165v-415h-106v415h-175zM535 922l85 512h92l165 -341l165 341h93l84 -512h-103l-57 347l-171 -347h-22l-170 347l-58 -347h-103z" />
<glyph unicode="&#x25fc;" horiz-adv-x="1105" d="M0 0v1106h1106v-1106h-1106z" />
</font>
</defs>
</svg>
