<?xml version="1.0" standalone="no"?>
<!DOCTYPE svg PUBLIC "-//W3C//DTD SVG 1.1//EN" "http://www.w3.org/Graphics/SVG/1.1/DTD/svg11.dtd" >
<svg xmlns="http://www.w3.org/2000/svg" xmlns:xlink="http://www.w3.org/1999/xlink" version="1.1">
<metadata></metadata>
<defs>
<font id="montbold" horiz-adv-x="1470" >
<font-face units-per-em="2048" ascent="1638" descent="-410" />
<missing-glyph horiz-adv-x="489" />
<glyph horiz-adv-x="0" />
<glyph horiz-adv-x="682" />
<glyph unicode=" "  horiz-adv-x="489" />
<glyph unicode="&#x09;" horiz-adv-x="489" />
<glyph unicode="&#xa0;" horiz-adv-x="489" />
<glyph unicode="!" horiz-adv-x="636" d="M160 0v320h317v-320h-317zM167 463v1012h303v-1012h-303z" />
<glyph unicode="&#x22;" horiz-adv-x="940" d="M125 893v545h276v-545h-276zM539 893v545h277v-545h-277z" />
<glyph unicode="#" horiz-adv-x="1329" d="M93 344v258h176l37 229h-165v248h204l55 355h273l-54 -355h222l54 355h272l-54 -355h121v-248h-156l-33 -229h142v-258h-185l-50 -342h-272l51 342h-231l-55 -342h-273l55 342h-134zM542 602h231l33 229h-227z" />
<glyph unicode="$" horiz-adv-x="1220" d="M83 448h301q0 -91 67 -140.5t164 -49.5q89 0 155.5 42t66.5 112q0 77 -97 119q-46 20 -176 51q-176 42 -254 80q-187 91 -205 284q-2 22 -2 45q0 167 101 270t280 129v133h238v-133q181 -28 279 -141.5t98 -291.5h-295q0 83 -59.5 127t-149.5 44q-80 0 -137.5 -32 t-57.5 -92q0 -23 8 -42t28 -34t37 -25.5t53.5 -22t58 -17t68.5 -17.5l12 -3q47 -12 72.5 -18.5t71.5 -20.5t73.5 -26t66.5 -32.5t63 -41.5t51 -51.5t42 -64.5t25 -78.5t10 -94.5q0 -180 -110.5 -289t-292.5 -137v-144h-236v143q-193 29 -305.5 150t-112.5 310z" />
<glyph unicode="%" horiz-adv-x="1626" d="M60 1061q0 143 91.5 234.5t234.5 91.5q144 0 235 -91.5t91 -234.5t-91.5 -235t-234.5 -92t-234.5 92t-91.5 235zM273 1061q0 -50 32 -83.5t81 -33.5q50 0 82 33t32 84t-32 83.5t-82 32.5q-49 0 -81 -32.5t-32 -83.5zM277 0l821 1363h237l-820 -1363h-238zM913 306 q0 143 91.5 234.5t234.5 91.5t234.5 -91.5t91.5 -234.5t-91.5 -234.5t-234.5 -91.5t-234.5 91.5t-91.5 234.5zM1126 306q0 -50 32 -83t81 -33q50 0 82 33t32 83q0 51 -32 83.5t-82 32.5q-49 0 -81 -32.5t-32 -83.5z" />
<glyph unicode="&#x26;" horiz-adv-x="1323" d="M82 386q0 72 19.5 134.5t56 112t79 87.5t97.5 74q-77 112 -105.5 184t-28.5 137q0 154 111 247.5t294 93.5q180 0 291 -93.5t111 -246.5q0 -56 -18.5 -106t-45.5 -87t-71.5 -75t-83 -63t-94.5 -57q83 -104 224 -268q49 97 58 218h252q-10 -245 -133 -422l224 -256h-322 q-14 15 -39 44t-37 42q-167 -110 -390 -110q-202 0 -325.5 112t-123.5 298zM362 395q0 -73 54 -117.5t143 -44.5q104 0 191 48q-182 211 -267 316q-121 -94 -121 -202zM467 1113q0 -64 87 -195q94 52 141.5 96t47.5 100t-38 90t-100 34q-63 0 -100.5 -34.5t-37.5 -90.5z" />
<glyph unicode="'" horiz-adv-x="526" d="M125 893v545h276v-545h-276z" />
<glyph unicode="(" horiz-adv-x="712" d="M87 651q0 269 77.5 513.5t218.5 445.5h331q-61 -77 -116.5 -175.5t-105 -220.5t-79 -269t-29.5 -294q0 -146 28.5 -292.5t77 -268t104.5 -219.5t117 -174h-328q-141 200 -218.5 443.5t-77.5 510.5z" />
<glyph unicode=")" horiz-adv-x="712" d="M-1 1610h331q141 -201 218.5 -445.5t77.5 -513.5q0 -267 -77.5 -510.5t-218.5 -443.5h-328q61 76 117 174t104.5 219.5t77 268t28.5 292.5q0 147 -29.5 294t-79 269t-105 220.5t-116.5 175.5z" />
<glyph unicode="*" horiz-adv-x="874" d="M69 1110l75 212l181 -66v192h225v-192l180 66l76 -212l-184 -63l128 -150l-175 -144l-138 171l-138 -171l-174 144l128 150z" />
<glyph unicode="+" horiz-adv-x="1120" d="M73 546v274h340v352h294v-352h340v-274h-340v-362h-294v362h-340z" />
<glyph unicode="," horiz-adv-x="567" d="M123 0v319h322v-294q0 -151 -83.5 -242.5t-223.5 -106.5v146q79 11 117.5 60t38.5 118h-171z" />
<glyph unicode="-" horiz-adv-x="919" d="M126 431v288h668v-288h-668z" />
<glyph unicode="." horiz-adv-x="561" d="M123 0v320h316v-320h-316z" />
<glyph unicode="/" horiz-adv-x="1026" d="M43 -167l624 1726h314l-624 -1726h-314z" />
<glyph unicode="0" horiz-adv-x="1298" d="M97 682q0 327 148 516.5t404 189.5t404 -189.5t148 -516.5q0 -326 -149 -516.5t-403 -190.5t-403 190.5t-149 516.5zM392 682q0 -210 66 -322t191 -112t191 111t66 321t-67 322.5t-190 112.5q-125 0 -191 -111.5t-66 -321.5z" />
<glyph unicode="1" horiz-adv-x="737" d="M70 1105v257h500v-1362h-288v1105h-212z" />
<glyph unicode="2" horiz-adv-x="1122" d="M67 0v64q293 338 419 496t170.5 241t44.5 158q0 71 -43.5 114.5t-112.5 43.5q-72 0 -115.5 -44.5t-43.5 -117.5v-26h-293v30q0 190 122.5 310.5t324.5 120.5q201 0 328.5 -120t127.5 -308q0 -131 -80 -275.5t-310 -411.5h416v-275h-955z" />
<glyph unicode="3" horiz-adv-x="1128" d="M85 430h292q4 -83 52.5 -132.5t125.5 -49.5q82 0 135 55.5t53 142.5t-57 138.5t-151 51.5h-198v55l248 409h-467v262h868v-54l-281 -450q152 -34 242.5 -147.5t90.5 -273.5q0 -200 -137.5 -331t-345.5 -131q-203 0 -333 126.5t-137 328.5z" />
<glyph unicode="4" horiz-adv-x="1140" d="M34 261v53l449 1048h289l-362 -845h285l47 324h221v-324h118v-256h-118v-261h-275v261h-654z" />
<glyph unicode="5" horiz-adv-x="1116" d="M81 428h295q1 -78 52.5 -129t130.5 -51q78 0 130 54.5t52 136.5q0 87 -57 142.5t-146 55.5h-382l-28 37l77 688h736v-262h-505l-24 -214h137q212 0 349.5 -126.5t137.5 -320.5q0 -199 -137 -331.5t-340 -132.5q-206 0 -341.5 128.5t-136.5 324.5z" />
<glyph unicode="6" horiz-adv-x="1169" d="M86 466q0 96 31.5 197.5t109.5 234.5l271 466h321q-45 -77 -138.5 -237.5t-139.5 -241.5q61 19 127 19q195 0 321.5 -122t126.5 -316q0 -215 -144 -353t-369 -138q-229 0 -373 137t-144 354zM381 466q0 -96 62.5 -157.5t157.5 -61.5q96 0 158 61t62 158q0 98 -61.5 159.5 t-158.5 61.5q-95 0 -157.5 -62t-62.5 -159z" />
<glyph unicode="7" horiz-adv-x="1073" d="M58 1100v262h975v-39l-520 -1323h-303l436 1100h-588z" />
<glyph unicode="8" horiz-adv-x="1204" d="M94 411q0 199 177 312q-140 110 -140 278q0 171 131.5 280t340.5 109t339.5 -108.5t130.5 -280.5q0 -173 -139 -278q177 -113 177 -312q0 -191 -143 -313.5t-366 -122.5q-224 0 -366 121.5t-142 314.5zM386 415q0 -84 60 -136.5t157 -52.5t156.5 52.5t59.5 136.5 t-59.5 136.5t-156.5 52.5t-157 -52.5t-60 -136.5zM417 993q0 -69 52.5 -114.5t133.5 -45.5t132.5 45.5t51.5 114.5t-51.5 114t-132.5 45t-133.5 -45.5t-52.5 -113.5z" />
<glyph unicode="9" horiz-adv-x="1169" d="M55 899q0 215 144 353t368 138q229 0 373 -137t144 -354q0 -96 -31.5 -197.5t-109.5 -234.5l-272 -467h-322q221 378 280 480q-61 -19 -127 -19q-197 0 -322 122.5t-125 315.5zM336 899q0 -99 65 -161t168 -62q101 0 167 62t66 161q0 98 -66 160.5t-167 62.5 q-102 0 -167.5 -62.5t-65.5 -160.5z" />
<glyph unicode=":" horiz-adv-x="569" d="M126 0v320h317v-320h-317zM126 749v319h317v-319h-317z" />
<glyph unicode=";" horiz-adv-x="577" d="M127 0v319h322v-294q0 -151 -83.5 -242.5t-223.5 -106.5v146q79 11 117.5 60t38.5 118h-171zM131 751v320h317v-320h-317z" />
<glyph unicode="&#x3c;" horiz-adv-x="1087" d="M54 639v68l880 572v-336l-466 -267l466 -262v-337z" />
<glyph unicode="=" horiz-adv-x="1253" d="M135 314v275h983v-275h-983zM135 765v274h983v-274h-983z" />
<glyph unicode="&#x3e;" horiz-adv-x="1087" d="M153 77v337l466 262l-466 267v336l881 -572v-68z" />
<glyph unicode="?" horiz-adv-x="1107" d="M58 1056q1 111 42.5 200.5t110 145t153 85t175.5 29.5q93 0 178.5 -30.5t152.5 -87t107 -144t40 -192.5q0 -47 -7.5 -87.5t-24 -74t-31.5 -57.5t-43 -50.5t-44 -40t-48 -38.5q-38 -29 -57.5 -46t-44 -45.5t-35 -60.5t-10.5 -71v-45h-301v45q0 62 13.5 114t31 86 t50.5 68.5t54.5 51.5t60.5 45q38 27 56.5 42.5t43 41.5t34.5 55.5t10 66.5q0 82 -55 133t-133 51q-79 0 -138.5 -51t-60.5 -139h-280zM362 0v320h317v-320h-317z" />
<glyph unicode="@" horiz-adv-x="2043" d="M78 463q0 168 51.5 312.5t141 247.5t209.5 176t257.5 108.5t284.5 35.5q148 0 285.5 -35t256 -106.5t206.5 -172t138 -240.5t50 -303q0 -116 -34.5 -208.5t-93 -149t-129.5 -86t-148 -29.5q-87 0 -156 31.5t-109 89.5q-125 -135 -313 -135q-198 0 -328.5 131.5 t-130.5 330.5t130.5 329.5t328.5 130.5q177 0 297 -117l30 65h140v-500q0 -60 34.5 -96.5t84.5 -36.5q66 0 113.5 65t47.5 185q0 181 -87 324.5t-245.5 224.5t-361.5 81t-366 -84t-255 -233.5t-92 -335.5q0 -182 83.5 -325t234 -222.5t342.5 -79.5q179 0 329 66v-226 q-189 -70 -359 -70q-186 0 -347 64.5t-275 177t-179.5 272t-65.5 343.5zM783 463q0 -92 60 -152t153 -60t153 59.5t60 152.5t-60 152t-153 59t-153 -59.5t-60 -151.5z" />
<glyph unicode="A" d="M18 0l562 1434h292l580 -1434h-336l-100 272h-571l-98 -272h-329zM542 542h376l-189 513z" />
<glyph unicode="B" horiz-adv-x="1314" d="M164 0v1434h593q185 0 308 -105.5t123 -263.5q0 -92 -43 -174t-119 -135q95 -49 147 -138.5t52 -203.5q0 -172 -132.5 -293t-319.5 -121h-609zM469 285h275q76 0 122.5 45t46.5 116q0 70 -46.5 115t-122.5 45h-275v-321zM469 864h258q73 0 116.5 42.5t43.5 110.5t-44 110 t-116 42h-258v-305z" />
<glyph unicode="C" horiz-adv-x="1579" d="M81 715q0 158 57 297t155 238t235.5 156.5t292.5 57.5q261 0 452.5 -158t241.5 -413h-311q-45 128 -146.5 201.5t-236.5 73.5q-182 0 -304 -129.5t-122 -323.5q0 -193 122 -321.5t304 -128.5q141 0 244 79.5t142 216.5h313q-49 -266 -241 -429t-458 -163 q-155 0 -292.5 57.5t-235.5 156.5t-155 237.5t-57 294.5z" />
<glyph unicode="D" horiz-adv-x="1517" d="M164 0v1434h542q156 0 291.5 -54t231 -148.5t150 -227.5t54.5 -286q0 -154 -55 -287.5t-150.5 -228t-231 -148.5t-290.5 -54h-542zM474 288h225q184 0 300.5 120.5t116.5 309.5t-116.5 308.5t-300.5 119.5h-225v-858z" />
<glyph unicode="E" horiz-adv-x="1144" d="M164 0v1434h861v-287h-551v-283h497v-281h-497v-294h573v-289h-883z" />
<glyph unicode="F" horiz-adv-x="1095" d="M164 0v1434h856v-289h-546v-315h493v-281h-493v-549h-310z" />
<glyph unicode="G" horiz-adv-x="1632" d="M81 715q0 159 56 298t153 238.5t234 156.5t294 57q176 0 328.5 -69.5t255 -194t135.5 -283.5h-320q-46 115 -152 182.5t-241 67.5q-190 0 -309.5 -126t-119.5 -327q0 -200 118 -325t311 -125q139 0 249 67.5t150 178.5h-430v238h763q0 -222 -92.5 -400t-260 -279 t-379.5 -101q-156 0 -293.5 56.5t-236.5 155t-156 237t-57 297.5z" />
<glyph unicode="H" horiz-adv-x="1488" d="M164 0v1434h310v-553h540v553h310v-1434h-310v593h-540v-593h-310z" />
<glyph unicode="I" horiz-adv-x="638" d="M164 0v1434h310v-1434h-310z" />
<glyph unicode="J" horiz-adv-x="1247" d="M47 489v52h306v-36q0 -111 60.5 -177.5t161.5 -66.5q96 0 155 66t59 178v929h306v-945q0 -229 -143.5 -374.5t-376.5 -145.5q-232 0 -380 146t-148 374z" />
<glyph unicode="K" horiz-adv-x="1343" d="M164 0v1434h310v-663l470 663h362l-488 -687l541 -747h-379l-506 700v-700h-310z" />
<glyph unicode="L" horiz-adv-x="1069" d="M164 0v1434h310v-1146h550v-288h-860z" />
<glyph unicode="M" horiz-adv-x="1996" d="M75 0l224 1434h311l388 -879l389 879h312l222 -1434h-316l-141 936l-428 -933h-76l-428 932l-141 -935h-316z" />
<glyph unicode="N" horiz-adv-x="1540" d="M164 0v1434h280l629 -875v875h304v-1434h-259l-650 896v-896h-304z" />
<glyph unicode="O" horiz-adv-x="1685" d="M79 717q0 157 58.5 296t160 238t243.5 156.5t304 57.5q161 0 302.5 -57t242 -156.5t158.5 -238t58 -296.5t-58 -296.5t-158.5 -238t-242 -156.5t-302.5 -57q-162 0 -304 57.5t-243.5 156.5t-160 238t-58.5 296zM394 717q0 -193 130 -324.5t321 -131.5t319 130.5 t128 325.5t-128 325t-319 130t-321 -131t-130 -324z" />
<glyph unicode="P" horiz-adv-x="1273" d="M164 0v1434h552q142 0 257.5 -63.5t182 -177t66.5 -252.5q0 -212 -145 -352.5t-361 -140.5h-242v-448h-310zM474 735h228q91 0 148 58t57 148t-56.5 147.5t-148.5 57.5h-228v-411z" />
<glyph unicode="Q" horiz-adv-x="1689" d="M80 717q0 157 58.5 296t159.5 238t243 156.5t304 57.5q161 0 302.5 -57t242 -156.5t158.5 -238t58 -296.5q0 -161 -59.5 -301t-166.5 -242l283 -328h-316l-167 193q-156 -70 -335 -70q-162 0 -304 57.5t-243 156.5t-159.5 238t-58.5 296zM394 717q0 -193 130 -324.5 t321 -131.5q63 0 128 18l-285 330h316l174 -202q114 128 114 310q0 195 -128 325t-319 130t-321 -131t-130 -324z" />
<glyph unicode="R" horiz-adv-x="1353" d="M164 0v1434h579q216 0 358.5 -134.5t142.5 -340.5q0 -139 -70 -248.5t-191 -168.5l317 -542h-347l-280 489h-199v-489h-310zM474 776h248q96 0 152 51.5t56 133.5t-56 134t-152 52h-248v-371z" />
<glyph unicode="S" horiz-adv-x="1267" d="M84 465h312q0 -99 70 -152.5t172 -53.5q93 0 162 46t69 123q0 27 -9.5 49t-32 39t-43 29t-60.5 24t-65.5 18.5t-76.5 18.5q-180 44 -260 83q-190 91 -214 280q-4 30 -4 62q0 204 139.5 316.5t380.5 112.5q246 0 381.5 -122.5t135.5 -338.5h-307q0 88 -62.5 134.5 t-155.5 46.5q-83 0 -142.5 -35t-59.5 -101q0 -29 15.5 -53t36.5 -39t63 -30.5t72.5 -23.5t88.5 -22q49 -12 75.5 -19t74.5 -22t76 -27.5t69 -34t65.5 -43t53 -53.5t43.5 -67t25.5 -81t10.5 -98q0 -113 -43 -202t-117.5 -144.5t-172 -84t-210.5 -28.5q-250 0 -403 132.5 t-153 360.5z" />
<glyph unicode="T" horiz-adv-x="1196" d="M45 1146v288h1107v-288h-399v-1146h-310v1146h-398z" />
<glyph unicode="U" horiz-adv-x="1482" d="M149 540v894h311v-880q0 -133 78.5 -213t203.5 -80t203 80t78 213v880h311v-894q0 -250 -168 -410.5t-424 -160.5t-424.5 160.5t-168.5 410.5z" />
<glyph unicode="V" horiz-adv-x="1437" d="M16 1434h343l362 -1014l352 1014h339l-542 -1434h-293z" />
<glyph unicode="W" horiz-adv-x="2131" d="M25 1434h329l281 -953l377 938h104l387 -938l275 953h324l-442 -1434h-276l-320 804l-311 -804h-276z" />
<glyph unicode="X" horiz-adv-x="1280" d="M8 0l446 752l-418 682h349l256 -442l258 442h340l-412 -693l447 -741h-348l-283 492l-286 -492h-349z" />
<glyph unicode="Y" horiz-adv-x="1390" d="M35 1434h330l331 -574l332 574h330l-505 -855v-579h-318v581z" />
<glyph unicode="Z" horiz-adv-x="1193" d="M53 0v46l598 1100h-563v288h1026v-57l-593 -1089h616v-288h-1084z" />
<glyph unicode="[" horiz-adv-x="720" d="M166 -306v1943h472v-252h-192v-1435h196v-256h-476z" />
<glyph unicode="\" horiz-adv-x="1026" d="M45 1559h314l624 -1726h-315z" />
<glyph unicode="]" horiz-adv-x="720" d="M78 -50h196v1435h-192v252h472v-1943h-476v256z" />
<glyph unicode="^" horiz-adv-x="1165" d="M60 694l501 744h46l497 -744h-337l-186 310l-184 -310h-337z" />
<glyph unicode="_" horiz-adv-x="1056" d="M0 -73h1057v-286h-1057v286z" />
<glyph unicode="`" horiz-adv-x="1228" d="M239 1540h318l111 -312h-226z" />
<glyph unicode="a" horiz-adv-x="1413" d="M71 555q0 164 75 297.5t208 209t297 75.5q211 0 363 -135l32 106h224v-1106h-235l-26 99q-151 -132 -358 -132q-164 0 -297 76t-208 210.5t-75 299.5zM374 555q0 -130 85.5 -216.5t215.5 -86.5t215.5 86t85.5 217t-85.5 217t-215.5 86t-215.5 -86.5t-85.5 -216.5z" />
<glyph unicode="b" horiz-adv-x="1398" d="M144 0v1505h299v-459q133 91 303 91q166 0 299 -75.5t207.5 -209t74.5 -299.5t-74.5 -299.5t-207.5 -209t-299 -75.5q-199 0 -346 123l-36 -92h-220zM420 553q0 -129 86 -215t216 -86t215.5 86t85.5 215q0 131 -85.5 217t-215.5 86t-216 -86.5t-86 -216.5z" />
<glyph unicode="c" horiz-adv-x="1280" d="M71 556q0 122 45 230t123 185t187.5 121.5t233.5 44.5q214 0 367.5 -124.5t194.5 -329.5h-297q-36 82 -107 127.5t-160 45.5q-121 0 -202.5 -86.5t-81.5 -214.5t82 -216.5t202 -88.5q91 0 160 48t107 137h301q-39 -209 -195.5 -337.5t-372.5 -128.5q-123 0 -232 45.5 t-187 123.5t-123 187t-45 231z" />
<glyph unicode="d" horiz-adv-x="1398" d="M71 553q0 124 44 232.5t120.5 185.5t184.5 121.5t232 44.5q169 0 304 -91v459h299v-1505h-221l-35 92q-147 -125 -347 -125q-251 0 -416 167t-165 419zM376 553q0 -131 85.5 -217t215.5 -86t215.5 86.5t85.5 216.5t-85.5 216.5t-215.5 86.5t-215.5 -86t-85.5 -217z" />
<glyph unicode="e" horiz-adv-x="1286" d="M71 553q0 164 74.5 298t206 210t293.5 76q166 0 298 -78.5t203 -210.5t71 -291q0 -45 -6 -88h-837q19 -113 90.5 -173.5t180.5 -60.5q77 0 138.5 34t95.5 94h314q-60 -181 -208 -287.5t-340 -106.5q-161 0 -292.5 76.5t-206.5 210.5t-75 297zM382 673h536 q-31 101 -101.5 155t-171.5 54q-99 0 -168 -55t-95 -154z" />
<glyph unicode="f" horiz-adv-x="849" d="M52 845v246h193v100q0 162 90 254.5t261 92.5h223v-235h-163q-121 0 -121 -119v-93h286v-246h-278v-845h-299v845h-192z" />
<glyph unicode="g" horiz-adv-x="1374" d="M71 582q0 152 72.5 279.5t199 201.5t278.5 74q215 0 367 -141l48 110h194v-978q0 -259 -151 -408.5t-414 -149.5q-225 0 -375 108t-188 298h297q24 -71 98.5 -110.5t162.5 -39.5q117 0 197 70.5t80 188.5v42q-141 -99 -316 -99q-152 0 -278.5 73t-199 200.5t-72.5 280.5z M374 582q0 -124 79.5 -205.5t202.5 -81.5q122 0 202 81.5t80 205.5q0 123 -79.5 203.5t-202.5 80.5q-122 0 -202 -80.5t-80 -203.5z" />
<glyph unicode="h" horiz-adv-x="1312" d="M144 0v1505h299v-502q135 129 334 129q187 0 296.5 -124t109.5 -336v-672h-299v622q0 126 -46.5 187t-146.5 61q-113 0 -180.5 -77.5t-67.5 -211.5v-581h-299z" />
<glyph unicode="i" horiz-adv-x="585" d="M144 0v1106h299v-1106h-299zM144 1253v278h298v-278h-298z" />
<glyph unicode="j" horiz-adv-x="610" d="M-91 -124h96q163 0 163 163v1067h299v-1090q0 -182 -116 -298.5t-299 -116.5h-143v275zM169 1253v278h298v-278h-298z" />
<glyph unicode="k" horiz-adv-x="1175" d="M171 0v1505h299v-890l332 491h344l-374 -527l414 -579h-362l-354 529v-529h-299z" />
<glyph unicode="l" horiz-adv-x="585" d="M144 0v1505h299v-1505h-299z" />
<glyph unicode="m" horiz-adv-x="1921" d="M144 0v1106h208l56 -137q59 75 146.5 119t183.5 44q105 0 189 -46.5t132 -130.5q58 82 148.5 129.5t194.5 47.5q172 0 280.5 -122t108.5 -316v-694h-299v644q0 111 -42.5 168.5t-123.5 57.5q-100 0 -156.5 -71.5t-56.5 -200.5v-598h-291v644q0 111 -41.5 168.5 t-121.5 57.5q-102 0 -159 -71.5t-57 -200.5v-598h-299z" />
<glyph unicode="n" horiz-adv-x="1312" d="M144 0v1106h205l58 -137q64 76 159.5 119.5t206.5 43.5q188 0 299 -125.5t111 -336.5v-670h-299v622q0 248 -193 248q-115 0 -181.5 -77.5t-66.5 -211.5v-581h-299z" />
<glyph unicode="o" horiz-adv-x="1337" d="M71 553q0 166 77.5 299.5t214.5 209t306 75.5q168 0 305 -75.5t215 -209.5t78 -299q0 -164 -78 -298t-215 -210t-305 -76q-169 0 -306 76t-214.5 210t-77.5 298zM374 553q0 -134 83 -218.5t212 -84.5t212 84.5t83 218.5t-83 218.5t-212 84.5t-212 -84.5t-83 -218.5z" />
<glyph unicode="p" horiz-adv-x="1396" d="M144 -399v1505h197l51 -101q149 132 355 132q164 0 296.5 -75.5t207.5 -209.5t75 -299t-75 -299.5t-207.5 -210.5t-296.5 -76q-168 0 -304 93v-459h-299zM421 553q0 -130 85.5 -216.5t215.5 -86.5t215.5 86t85.5 217t-85.5 217t-215.5 86t-215.5 -86.5t-85.5 -216.5z" />
<glyph unicode="q" horiz-adv-x="1396" d="M71 553q0 165 74.5 299t207 209.5t297.5 75.5q206 0 355 -132l51 101h198v-1505h-299v459q-136 -93 -305 -93q-164 0 -296.5 76t-207.5 210t-75 300zM374 553q0 -131 85.5 -217t215.5 -86t215.5 86.5t85.5 216.5t-85.5 216.5t-215.5 86.5t-215.5 -86t-85.5 -217z" />
<glyph unicode="r" horiz-adv-x="833" d="M144 0v1106h191l53 -136q114 142 321 142h98v-282h-129q-126 0 -180.5 -59.5t-54.5 -195.5v-575h-299z" />
<glyph unicode="s" horiz-adv-x="1075" d="M72 364h291q1 -71 51.5 -109t133.5 -38q66 0 111.5 29t45.5 82q0 27 -15.5 47t-48.5 33.5t-65 21t-84 16.5q-47 8 -79 14.5t-77.5 19.5t-76.5 28.5t-65.5 41.5t-55 57.5t-34 76.5t-13.5 99q0 157 123 255.5t322 98.5q200 0 321 -101.5t122 -267.5h-284q-1 65 -44.5 98 t-122.5 33q-69 0 -108.5 -29t-39.5 -77q0 -18 6.5 -32.5t23 -25t31 -18t44 -15t48 -11t56.5 -10.5q161 -29 232 -60q179 -80 179 -280q0 -169 -127 -270.5t-337 -101.5q-208 0 -335.5 108.5t-128.5 286.5z" />
<glyph unicode="t" horiz-adv-x="880" d="M15 866v64l437 465h57v-289h305v-240h-300v-431q0 -81 44 -125t126 -44h136v-266h-212q-182 0 -287.5 105.5t-105.5 289.5v471h-200z" />
<glyph unicode="u" horiz-adv-x="1296" d="M128 467v639h299v-605q0 -118 59 -184.5t163 -66.5t162 67t58 184v605h299v-639q0 -224 -142 -361t-377 -137q-234 0 -377.5 137t-143.5 361z" />
<glyph unicode="v" horiz-adv-x="1196" d="M14 1106h319l270 -741l266 741h310l-439 -1106h-276z" />
<glyph unicode="w" horiz-adv-x="1744" d="M19 1106h304l218 -659l288 651h84l297 -653l218 661h296l-362 -1106h-240l-251 572l-245 -572h-241z" />
<glyph unicode="x" horiz-adv-x="1116" d="M3 0l376 568l-352 538h338l192 -320l205 320h329l-357 -523l380 -583h-339l-219 366l-224 -366h-329z" />
<glyph unicode="y" horiz-adv-x="1232" d="M12 1106h325l295 -680l276 680h318l-482 -1091q-69 -156 -134.5 -242.5t-152.5 -129t-211 -42.5h-123v269h104q106 0 151.5 39t97.5 167l4 9z" />
<glyph unicode="z" horiz-adv-x="1024" d="M43 0v33l471 802h-426v271h869v-41l-466 -790h466v-275h-914z" />
<glyph unicode="{" horiz-adv-x="757" d="M65 527v246h37q47 0 80 33t33 80v475q0 110 79 188t189 78h191v-261h-80q-38 0 -61 -22.5t-23 -59.5v-381q0 -86 -44.5 -154.5t-116.5 -97.5q72 -28 116.5 -96.5t44.5 -155.5v-366q0 -36 23.5 -59t60.5 -23h81v-263h-192q-111 0 -189.5 78t-78.5 190v460q0 46 -33 78.5 t-80 32.5h-37z" />
<glyph unicode="|" horiz-adv-x="610" d="M166 -389v2109h278v-2109h-278z" />
<glyph unicode="}" horiz-adv-x="757" d="M84 -49h80q37 0 60.5 23t23.5 59v366q0 87 44.5 155.5t116.5 96.5q-72 29 -116.5 97.5t-44.5 154.5v381q0 37 -23 59.5t-61 22.5h-80v261h191q110 0 189 -78t79 -188v-475q0 -47 33 -80t80 -33h38v-246h-38q-47 0 -80 -32.5t-33 -78.5v-460q0 -112 -78.5 -190t-189.5 -78 h-191v263z" />
<glyph unicode="~" horiz-adv-x="1212" d="M125 466v36q0 165 81.5 262t224.5 97q72 0 125.5 -23.5t110.5 -66.5q42 -30 69 -43t57 -13q43 0 70 31t27 79v32h209v-36q0 -167 -81 -263.5t-221 -96.5q-74 0 -130 23t-120 67q-73 50 -114 50q-40 0 -68.5 -30.5t-28.5 -76.5v-28h-211z" />
<glyph unicode="&#xa1;" horiz-adv-x="614" d="M148 786v320h317v-320h-317zM156 -369v1012h302v-1012h-302z" />
<glyph unicode="&#xa2;" horiz-adv-x="1230" d="M82 530q0 204 123 352t317 186v162h235v-163q159 -32 268.5 -142.5t142.5 -272.5h-284q-34 74 -100 115.5t-148 41.5q-113 0 -188.5 -80t-75.5 -201q0 -119 76.5 -200t187.5 -81q83 0 147.5 44t100.5 123h288q-31 -164 -142.5 -277t-272.5 -146v-146h-235v145 q-193 38 -316.5 188t-123.5 352z" />
<glyph unicode="&#xa3;" horiz-adv-x="1236" d="M93 0v203l126 38v296h-97v235h97v218q0 184 124 297.5t323 113.5q194 0 308.5 -111t114.5 -298v-32h-267v15q0 77 -42 122.5t-114 45.5t-115.5 -45.5t-43.5 -123.5v-202h277v-235h-277v-287h377v148h265v-398h-1056z" />
<glyph unicode="&#xa4;" horiz-adv-x="1241" d="M89 252l135 142q-61 105 -61 227q0 130 68 239l-135 138l171 170l143 -143q97 50 207 50q112 0 211 -52l144 145l170 -170l-138 -139q67 -110 67 -238q0 -123 -59 -225l144 -146l-171 -169l-143 145q-102 -59 -225 -59q-119 0 -221 58l-137 -144zM408 623q0 -85 63 -148 t148 -63t145.5 62.5t60.5 148.5q0 84 -60.5 145.5t-145.5 61.5q-84 0 -147.5 -61t-63.5 -146z" />
<glyph unicode="&#xa5;" horiz-adv-x="1368" d="M57 1362h302l322 -532l328 532h302l-481 -751v-48h331v-165h-331v-96h331v-159h-331v-143h-294v143h-331v159h331v96h-331v165h331v43z" />
<glyph unicode="&#xa6;" horiz-adv-x="610" d="M166 -389v921h278v-921h-278zM166 819v901h278v-901h-278z" />
<glyph unicode="&#xa7;" horiz-adv-x="1101" d="M93 670q0 170 132 267q-84 74 -84 194q0 159 107.5 246t287.5 87q190 0 305.5 -101t115.5 -266h-246q0 66 -52 102.5t-125 36.5q-59 0 -101 -27t-42 -74q0 -29 16 -50.5t52 -38t66.5 -26t87.5 -23.5q51 -12 79 -19.5t76.5 -24t76.5 -32.5t63.5 -43t55 -57.5t33 -74.5 t13.5 -96q0 -159 -126 -263q80 -77 80 -197q0 -157 -108.5 -243t-291.5 -86q-192 0 -309.5 99.5t-117.5 263.5h247q0 -66 53.5 -102.5t128.5 -36.5q62 0 105 27t43 74q0 19 -7 35.5t-24.5 29t-33.5 22t-46.5 19t-51 15t-59.5 15.5q-50 12 -78.5 19t-77 23t-77 32t-64 43 t-55 58t-33.5 75.5t-14 97.5zM346 691q0 -24 8 -44t27.5 -36t36.5 -27t52 -23.5t55.5 -19t64.5 -19.5q12 -3 76 -24q92 51 92 132q0 26 -8.5 47.5t-29.5 39t-38.5 29.5t-55 25.5t-58 20t-66.5 20.5q-8 3 -25 8.5t-26 8.5q-105 -47 -105 -138z" />
<glyph unicode="&#xa8;" horiz-adv-x="1228" d="M201 1248v283h317v-283h-317zM673 1248v283h317v-283h-317z" />
<glyph unicode="&#xa9;" horiz-adv-x="1695" d="M88 715q0 213 97 381.5t270.5 262t392.5 93.5t392.5 -93.5t270.5 -262t97 -381.5t-97 -381.5t-270.5 -262.5t-392.5 -94t-392.5 94t-270.5 262.5t-97 381.5zM280 715q0 -164 73 -292.5t202.5 -199.5t292.5 -71t292.5 71t202.5 199.5t73 292.5t-73 292.5t-202.5 199.5 t-292.5 71t-292.5 -71t-202.5 -199.5t-73 -292.5zM462 717q0 164 110.5 272t275.5 108q137 0 236.5 -80t125.5 -212h-194q-49 107 -168 107q-81 0 -134.5 -56t-53.5 -139q0 -80 53.5 -135.5t134.5 -55.5q116 0 168 114h197q-26 -135 -126.5 -218t-238.5 -83 q-163 0 -274.5 109.5t-111.5 268.5z" />
<glyph unicode="&#xaa;" horiz-adv-x="937" d="M74 1113q0 146 99.5 248t242.5 102q131 0 224 -85l23 73h148v-678h-154l-20 71q-93 -83 -221 -83q-143 0 -242.5 102.5t-99.5 249.5zM270 1113q0 -75 48.5 -124.5t122.5 -49.5t122 49t48 125q0 75 -48.5 124.5t-121.5 49.5q-74 0 -122.5 -50t-48.5 -124z" />
<glyph unicode="&#xab;" horiz-adv-x="1380" d="M61 529v35l325 419h352l-332 -436l332 -437h-352zM629 529v35l325 419h353l-332 -436l332 -437h-353z" />
<glyph unicode="&#xac;" horiz-adv-x="1245" d="M107 597v279h994v-622h-294v343h-700z" />
<glyph unicode="&#xad;" horiz-adv-x="919" d="M126 431v288h668v-288h-668z" />
<glyph unicode="&#xae;" horiz-adv-x="1017" d="M81 1027q0 178 125 302.5t304 124.5q178 0 302 -124t124 -303t-124 -303.5t-302 -124.5t-303.5 125.5t-125.5 302.5zM194 1027q0 -132 92.5 -223.5t223.5 -91.5t222 91t91 224q0 132 -91 223t-222 91q-133 0 -224.5 -91.5t-91.5 -222.5zM352 822v417h188q66 0 108.5 -43 t42.5 -109q0 -85 -69 -124l82 -141h-119l-70 122h-46v-122h-117zM469 1047h60q23 0 36 12t13 32t-13 32t-36 12h-60v-88z" />
<glyph unicode="&#xaf;" horiz-adv-x="1038" d="M199 1264v235h641v-235h-641z" />
<glyph unicode="&#xb0;" horiz-adv-x="765" d="M61 1413q0 127 93.5 218t226.5 91t229 -90.5t96 -218.5t-95.5 -218.5t-229.5 -90.5q-133 0 -226.5 90.5t-93.5 218.5zM258 1413q0 -52 35.5 -86.5t89.5 -34.5t89.5 34.5t35.5 86.5q0 51 -35.5 86t-89.5 35t-89.5 -35t-35.5 -86z" />
<glyph unicode="&#xb1;" horiz-adv-x="1224" d="M122 -26v263h983v-263h-983zM122 734v275h344v318h294v-318h343v-275h-343v-319h-294v319h-344z" />
<glyph unicode="&#xb4;" horiz-adv-x="1177" d="M205 1228l111 312h319l-204 -312h-226z" />
<glyph unicode="&#xb6;" horiz-adv-x="1376" d="M60 982q0 193 140 322.5t361 129.5h730v-277h-182v-1292h-268v1292h-158v-1292h-267v688q-159 37 -257.5 153.5t-98.5 275.5z" />
<glyph unicode="&#xb7;" horiz-adv-x="569" d="M126 559v320h317v-320h-317z" />
<glyph unicode="&#xb8;" horiz-adv-x="794" d="M208 -316h123q34 0 55.5 18.5t21.5 48.5t-21.5 48.5t-55.5 18.5h-82l-16 19l76 268h162l-49 -170q85 -12 135.5 -62.5t50.5 -128.5q0 -94 -75 -153t-190 -59h-135v152z" />
<glyph unicode="&#xba;" horiz-adv-x="874" d="M74 1113q0 151 103.5 250.5t260.5 99.5q155 0 258.5 -99.5t103.5 -250.5t-103.5 -250.5t-258.5 -99.5q-157 0 -260.5 99.5t-103.5 250.5zM275 1113q0 -73 45 -119t118 -46q72 0 116.5 45.5t44.5 119.5q0 73 -44.5 118.5t-116.5 45.5q-73 0 -118 -45.5t-45 -118.5z" />
<glyph unicode="&#xbb;" horiz-adv-x="1380" d="M74 110l331 437l-331 436h352l325 -419v-35l-325 -419h-352zM642 110l332 437l-332 436h352l325 -419v-35l-325 -419h-352z" />
<glyph unicode="&#xbc;" horiz-adv-x="1511" d="M42 1259v175h344v-810h-209v635h-135zM142 -61l827 1556h227l-827 -1556h-227zM813 150v35l264 625h196l-206 -492h146l38 185h141v-185h72v-168h-72v-150h-188v150h-391z" />
<glyph unicode="&#xbd;" horiz-adv-x="1556" d="M42 1259v175h344v-810h-209v635h-135zM142 -61l827 1556h227l-827 -1556h-227zM894 2v45q247 291 310.5 380t63.5 143q0 39 -21 61.5t-56 22.5q-38 0 -60.5 -24.5t-22.5 -65.5v-16h-199v15q0 125 74.5 197.5t205.5 72.5q126 0 205 -71.5t79 -186.5q0 -77 -43.5 -155.5 t-175.5 -234.5h236v-183h-596z" />
<glyph unicode="&#xbe;" horiz-adv-x="1724" d="M58 885h187q2 -46 30 -74.5t72 -28.5q47 0 76.5 30.5t29.5 79.5t-31.5 77t-84.5 28h-124v36l137 231h-272v170h538v-36l-165 -261q88 -21 140.5 -88t52.5 -161q0 -122 -83.5 -200.5t-213.5 -78.5q-126 0 -206 77t-83 199zM355 -61l827 1556h227l-827 -1556h-227z M1026 150v35l264 625h196l-206 -492h146l38 185h141v-185h72v-168h-72v-150h-188v150h-391z" />
<glyph unicode="&#xbf;" horiz-adv-x="1085" d="M74 44q0 47 7.5 87.5t24 74t31.5 57.5t43 50.5t44 40t48 38.5q38 29 57.5 46t44 45.5t35 60.5t10.5 71v45h301v-45q0 -62 -13.5 -114t-31 -86t-50.5 -68.5t-54.5 -51.5t-60.5 -45q-38 -27 -56.5 -42.5t-43 -41.5t-34.5 -55.5t-10 -66.5q0 -82 55 -133t133 -51 q79 0 138.5 51t60.5 139h280q-1 -111 -42 -200.5t-109.5 -145t-153 -85t-176.5 -29.5q-93 0 -178.5 30.5t-152.5 87t-107 144t-40 192.5zM412 786v320h317v-320h-317z" />
<glyph unicode="&#xc0;" d="M18 0l562 1434h292l580 -1434h-336l-100 272h-571l-98 -272h-329zM413 1862h318l114 -290h-227zM542 542h376l-189 513z" />
<glyph unicode="&#xc1;" d="M18 0l562 1434h292l580 -1434h-336l-100 272h-571l-98 -272h-329zM542 542h376l-189 513zM604 1572l113 290h318l-205 -290h-226z" />
<glyph unicode="&#xc2;" d="M18 0l562 1434h292l580 -1434h-336l-100 272h-571l-98 -272h-329zM321 1572l235 290h339l236 -290h-256l-150 138l-148 -138h-256zM542 542h376l-189 513z" />
<glyph unicode="&#xc3;" d="M18 0l562 1434h292l580 -1434h-336l-100 272h-571l-98 -272h-329zM346 1571v22q0 129 63 204t174 75q89 0 179 -66q63 -46 103 -46q33 0 53.5 23t20.5 62v18h165v-22q0 -129 -63 -204.5t-172 -75.5q-39 0 -80 13.5t-57 22.5t-57 34q-65 40 -90 40q-31 0 -52.5 -23.5 t-21.5 -60.5v-16h-165zM542 542h376l-189 513z" />
<glyph unicode="&#xc4;" d="M18 0l562 1434h292l580 -1434h-336l-100 272h-571l-98 -272h-329zM329 1574v276h317v-276h-317zM542 542h376l-189 513zM808 1574v276h317v-276h-317z" />
<glyph unicode="&#xc5;" d="M18 0l562 1434h292l580 -1434h-336l-100 272h-571l-98 -272h-329zM450 1786q0 118 76 190t200 72q123 0 198.5 -72t75.5 -190q0 -117 -76 -189t-198 -72q-124 0 -200 72t-76 189zM542 542h376l-189 513zM605 1786q0 -50 34.5 -82.5t86.5 -32.5q51 0 85 32.5t34 82.5 t-34 82.5t-85 32.5q-52 0 -86.5 -32.5t-34.5 -82.5z" />
<glyph unicode="&#xc6;" horiz-adv-x="1900" d="M-37 0l838 1434h979v-285h-540v-285h487v-281h-487v-294h563v-289h-878v268h-449l-155 -268h-358zM633 538h292v504z" />
<glyph unicode="&#xc7;" horiz-adv-x="1579" d="M81 715q0 158 57 297t155 238t235.5 156.5t292.5 57.5q261 0 452.5 -158t241.5 -413h-311q-45 128 -146.5 201.5t-236.5 73.5q-182 0 -304 -129.5t-122 -323.5q0 -193 122 -321.5t304 -128.5q141 0 244 79.5t142 216.5h313q-45 -245 -213.5 -404.5t-406.5 -183.5l-8 -33 q81 -19 127 -68.5t46 -122.5q0 -97 -78.5 -157t-200.5 -60h-147v150h145q35 0 57.5 19t22.5 50t-22.5 50t-57.5 19h-86l-12 16l32 140q-183 24 -328 125.5t-227 262t-82 351.5z" />
<glyph unicode="&#xc8;" horiz-adv-x="1144" d="M164 0v1434h861v-287h-551v-283h497v-281h-497v-294h573v-289h-883zM281 1862h318l114 -290h-226z" />
<glyph unicode="&#xc9;" horiz-adv-x="1144" d="M164 0v1434h861v-287h-551v-283h497v-281h-497v-294h573v-289h-883zM472 1572l114 290h318l-205 -290h-227z" />
<glyph unicode="&#xca;" horiz-adv-x="1144" d="M164 0v1434h861v-287h-551v-283h497v-281h-497v-294h573v-289h-883zM189 1572l235 290h339l237 -290h-257l-150 138l-147 -138h-257z" />
<glyph unicode="&#xcb;" horiz-adv-x="1144" d="M164 0v1434h861v-287h-551v-283h498v-281h-498v-294h573v-289h-883zM198 1574v276h316v-276h-316zM676 1574v276h317v-276h-317z" />
<glyph unicode="&#xcc;" horiz-adv-x="638" d="M38 1862h312l80 -290h-230zM164 0v1434h310v-1434h-310z" />
<glyph unicode="&#xcd;" horiz-adv-x="638" d="M164 0v1434h310v-1434h-310zM202 1572l80 290h303l-162 -290h-221z" />
<glyph unicode="&#xce;" horiz-adv-x="638" d="M-45 1572l212 290h302l214 -290h-245l-120 136l-120 -136h-243zM164 0v1434h310v-1434h-310z" />
<glyph unicode="&#xcf;" horiz-adv-x="638" d="M-21 1574v276h285v-276h-285zM164 0v1434h310v-1434h-310zM375 1574v276h284v-276h-284z" />
<glyph unicode="&#xd0;" horiz-adv-x="1595" d="M47 585v267h196v582h543q156 0 291.5 -54t231 -148.5t150 -227.5t54.5 -286q0 -154 -55 -287.5t-150.5 -228t-231 -148.5t-290.5 -54h-543v585h-196zM554 288h224q184 0 300.5 120.5t116.5 309.5t-116.5 308.5t-300.5 119.5h-224v-294h292v-267h-292v-297z" />
<glyph unicode="&#xd1;" horiz-adv-x="1540" d="M164 0v1434h280l629 -875v875h304v-1434h-259l-650 896v-896h-304zM391 1571v22q0 129 63 204t174 75q89 0 179 -66q63 -46 104 -46q33 0 53 23t20 62v18h166v-22q0 -129 -63.5 -204.5t-172.5 -75.5q-14 0 -27 1t-26 4.5t-22.5 5.5t-23.5 8.5t-20 9t-21 10.5t-18 9.5 t-18.5 11t-16.5 10.5q-65 40 -91 40q-31 0 -52.5 -23.5t-21.5 -60.5v-16h-165z" />
<glyph unicode="&#xd2;" horiz-adv-x="1685" d="M80 717q0 157 58.5 296t159.5 238t243 156.5t304 57.5q161 0 302.5 -57t242 -156.5t158.5 -238t58 -296.5t-58 -296.5t-158.5 -238t-242 -156.5t-302.5 -57q-162 0 -304 57.5t-243 156.5t-159.5 238t-58.5 296zM394 717q0 -193 130 -324.5t321 -131.5t319 130.5 t128 325.5t-128 325t-319 130t-321 -131t-130 -324zM531 1862h318l114 -290h-226z" />
<glyph unicode="&#xd3;" horiz-adv-x="1685" d="M79 717q0 157 58.5 296t160 238t243.5 156.5t304 57.5q161 0 302.5 -57t242 -156.5t158.5 -238t58 -296.5t-58 -296.5t-158.5 -238t-242 -156.5t-302.5 -57q-162 0 -304 57.5t-243.5 156.5t-160 238t-58.5 296zM394 717q0 -193 130 -324.5t321 -131.5t319 130.5 t128 325.5t-128 325t-319 130t-321 -131t-130 -324zM722 1572l114 290h318l-206 -290h-226z" />
<glyph unicode="&#xd4;" horiz-adv-x="1685" d="M79 717q0 157 58.5 296t159.5 238t243 156.5t304 57.5q215 0 389.5 -97.5t273.5 -268.5t99 -382t-99 -382t-273.5 -268.5t-389.5 -97.5q-162 0 -304 57.5t-243 156.5t-159.5 238t-58.5 296zM394 717q0 -194 129.5 -325t320.5 -131t319.5 130.5t128.5 325.5t-128.5 325 t-319.5 130t-320.5 -131t-129.5 -324zM439 1572l235 290h339l237 -290h-257l-150 138l-148 -138h-256z" />
<glyph unicode="&#xd5;" horiz-adv-x="1685" d="M80 717q0 157 58.5 296t159.5 238t243 156.5t304 57.5q161 0 302.5 -57t242 -156.5t158.5 -238t58 -296.5t-58 -296.5t-158.5 -238t-242 -156.5t-302.5 -57q-162 0 -304 57.5t-243 156.5t-159.5 238t-58.5 296zM394 717q0 -193 130 -324.5t321 -131.5t319 130.5 t128 325.5t-128 325t-319 130t-321 -131t-130 -324zM464 1571v22q0 129 63 204t174 75q89 0 179 -66q63 -46 104 -46q33 0 53 23t20 62v18h166v-22q0 -129 -63.5 -204t-172.5 -75q-39 0 -79.5 13.5t-57 22.5t-56.5 33q-65 40 -91 40q-31 0 -52.5 -23.5t-21.5 -60.5v-16h-165 z" />
<glyph unicode="&#xd6;" horiz-adv-x="1685" d="M80 717q0 157 58.5 296t159.5 238t243 156.5t304 57.5q161 0 302.5 -57t242 -156.5t158.5 -238t58 -296.5t-58 -296.5t-158.5 -238t-242 -156.5t-302.5 -57q-162 0 -304 57.5t-243 156.5t-159.5 238t-58.5 296zM394 717q0 -193 130 -324.5t321 -131.5t319 130.5 t128 325.5t-128 325t-319 130t-321 -131t-130 -324zM447 1574v276h317v-276h-317zM926 1574v276h317v-276h-317z" />
<glyph unicode="&#xd7;" horiz-adv-x="1122" d="M94 404l270 275l-270 272l203 195l264 -268l263 268l203 -195l-270 -272l270 -275l-199 -193l-267 270l-268 -270z" />
<glyph unicode="&#xd8;" horiz-adv-x="1714" d="M79 721q0 157 58.5 295t159.5 236t243.5 155t303.5 57q139 0 268 -45l83 142h333l-170 -279q129 -101 201.5 -250.5t72.5 -326.5q0 -156 -58 -292.5t-158.5 -233.5t-242 -153t-302.5 -56q-145 0 -272 44l-85 -141h-337l175 278q-129 101 -201 248.5t-72 321.5zM397 723 q0 -186 127 -313l443 746q-59 15 -123 15q-191 0 -319 -128.5t-128 -319.5zM747 276q53 -15 116 -15q193 0 322 126.5t129 318.5q0 187 -125 315z" />
<glyph unicode="&#xd9;" horiz-adv-x="1482" d="M149 540v894h311v-880q0 -133 78.5 -213t203.5 -80t203 80t78 213v880h311v-894q0 -250 -168 -410.5t-424 -160.5t-424.5 160.5t-168.5 410.5zM429 1862h318l113 -290h-226z" />
<glyph unicode="&#xda;" horiz-adv-x="1482" d="M149 540v894h311v-880q0 -133 78.5 -213t203.5 -80t203 80t78 213v880h311v-894q0 -250 -168 -410.5t-424 -160.5t-424.5 160.5t-168.5 410.5zM619 1572l114 290h318l-205 -290h-227z" />
<glyph unicode="&#xdb;" horiz-adv-x="1482" d="M149 540v894h311v-880q0 -133 78.5 -213t203.5 -80t203 80t78 213v880h311v-894q0 -250 -168 -410.5t-424 -160.5t-424.5 160.5t-168.5 410.5zM336 1572l235 290h339l237 -290h-256l-150 138l-148 -138h-257z" />
<glyph unicode="&#xdc;" horiz-adv-x="1482" d="M149 540v894h311v-880q0 -133 78.5 -213t203.5 -80t203 80t78 213v880h311v-894q0 -250 -168 -410.5t-424 -160.5t-424.5 160.5t-168.5 410.5zM345 1574v276h317v-276h-317zM823 1574v276h317v-276h-317z" />
<glyph unicode="&#xdd;" horiz-adv-x="1390" d="M35 1434h330l331 -574l332 574h330l-505 -855v-579h-318v581zM574 1572l114 290h318l-206 -290h-226z" />
<glyph unicode="&#xde;" horiz-adv-x="1294" d="M164 0v1434h310v-222h242q218 0 362 -141t144 -354q0 -214 -144 -354.5t-362 -140.5h-242v-222h-310zM474 510h228q91 0 148 57.5t57 149.5t-57 149.5t-148 57.5h-228v-414z" />
<glyph unicode="&#xdf;" horiz-adv-x="1269" d="M144 0v986q0 254 135.5 397.5t372.5 143.5q212 0 348.5 -118.5t136.5 -304.5q0 -194 -154 -308q214 -109 214 -352q0 -202 -142.5 -323t-379.5 -121h-114v271h111q108 0 170 51t62 140t-63 139.5t-176 50.5h-88v255h72q97 0 157 51.5t60 133.5q0 80 -57 131.5t-148 51.5 q-102 0 -160 -71.5t-58 -189.5v-1014h-299z" />
<glyph unicode="&#xe0;" horiz-adv-x="1413" d="M71 555q0 164 75 297.5t208 209t297 75.5q211 0 363 -135l32 106h224v-1106h-235l-26 99q-151 -132 -358 -132q-164 0 -297 76t-208 210.5t-75 299.5zM374 555q0 -130 85.5 -216.5t215.5 -86.5t215.5 86t85.5 217t-85.5 217t-215.5 86t-215.5 -86.5t-85.5 -216.5z M400 1540h318l112 -312h-227z" />
<glyph unicode="&#xe1;" horiz-adv-x="1413" d="M71 555q0 164 75 297.5t208 209t297 75.5q211 0 363 -135l32 106h224v-1106h-235l-26 99q-151 -132 -358 -132q-164 0 -297 76t-208 210.5t-75 299.5zM374 555q0 -130 85.5 -216.5t215.5 -86.5t215.5 86t85.5 217t-85.5 217t-215.5 86t-215.5 -86.5t-85.5 -216.5z M561 1228l112 312h318l-203 -312h-227z" />
<glyph unicode="&#xe2;" horiz-adv-x="1413" d="M71 555q0 164 75 297.5t208 209t297 75.5q211 0 363 -135l32 106h223v-1106h-234l-26 99q-151 -132 -358 -132q-164 0 -297 76t-208 210.5t-75 299.5zM296 1228l235 312h339l237 -312h-257l-150 149l-148 -149h-256zM374 555q0 -130 85.5 -216.5t215.5 -86.5t215.5 86 t85.5 217t-85.5 217t-215.5 86t-215.5 -86.5t-85.5 -216.5z" />
<glyph unicode="&#xe3;" horiz-adv-x="1413" d="M71 555q0 164 75 297.5t208 209t297 75.5q211 0 363 -135l32 106h223v-1106h-234l-26 99q-151 -132 -358 -132q-164 0 -297 76t-208 210.5t-75 299.5zM319 1237v22q0 129 62.5 203.5t173.5 74.5q55 0 95.5 -17.5t83.5 -49.5q59 -45 102 -45q32 0 52.5 23.5t20.5 61.5v18 h166v-22q0 -129 -63 -204t-172 -75q-38 0 -78.5 13.5t-57 22.5t-56.5 33q-3 2 -12.5 7.5t-13 7.5t-11 6.5t-11.5 6.5t-11 5t-11.5 4t-10 2t-10.5 1q-30 0 -51.5 -23.5t-21.5 -59.5v-16h-165zM374 555q0 -130 85.5 -216.5t215.5 -86.5t215.5 86t85.5 217t-85.5 217t-215.5 86 t-215.5 -86.5t-85.5 -216.5z" />
<glyph unicode="&#xe4;" horiz-adv-x="1413" d="M71 555q0 164 75 297.5t208 209t297 75.5q211 0 363 -135l32 106h224v-1106h-235l-26 99q-151 -132 -358 -132q-164 0 -297 76t-208 210.5t-75 299.5zM302 1248v283h317v-283h-317zM374 555q0 -130 85.5 -216.5t215.5 -86.5t215.5 86t85.5 217t-85.5 217t-215.5 86 t-215.5 -86.5t-85.5 -216.5zM774 1248v283h317v-283h-317z" />
<glyph unicode="&#xe5;" horiz-adv-x="1413" d="M71 555q0 164 75 297.5t208 209t297 75.5q211 0 363 -135l32 106h224v-1106h-235l-26 99q-151 -132 -358 -132q-164 0 -297 76t-208 210.5t-75 299.5zM374 555q0 -130 85.5 -216.5t215.5 -86.5t215.5 86t85.5 217t-85.5 217t-215.5 86t-215.5 -86.5t-85.5 -216.5z M438 1445q0 111 72 178.5t188 67.5t187.5 -67.5t71.5 -178.5q0 -110 -71.5 -178.5t-187.5 -68.5t-188 68.5t-72 178.5zM585 1445q0 -47 32 -78t81 -31t80.5 31t31.5 78t-31.5 77.5t-80.5 30.5t-81 -30.5t-32 -77.5z" />
<glyph unicode="&#xe6;" horiz-adv-x="2181" d="M71 553q0 165 74.5 298.5t204 208.5t287.5 75q213 0 359 -144l14 116h173l13 -111q146 141 355 141q159 0 288 -77t201 -210.5t72 -296.5q0 -44 -6 -86h-843q20 -108 92.5 -166.5t184.5 -58.5q78 0 139 32t95 89h315q-60 -178 -205 -285.5t-333 -107.5q-207 0 -352 137 l-10 -108h-186l-11 112q-148 -142 -355 -142q-119 0 -224 45.5t-180 124t-118.5 186.5t-43.5 228zM376 553q0 -129 84 -215t211 -86t211 86t84 215q0 131 -84 217t-211 86t-211 -86t-84 -217zM1271 675h542q-31 100 -101.5 153.5t-171.5 53.5q-102 0 -172 -54.5t-97 -152.5z " />
<glyph unicode="&#xe7;" horiz-adv-x="1280" d="M71 556q0 122 45 230t123 185t187.5 121.5t233.5 44.5q214 0 367.5 -124.5t194.5 -329.5h-297q-36 82 -107 127.5t-160 45.5q-121 0 -202.5 -86.5t-81.5 -214.5t82 -216.5t202 -88.5q91 0 160 48t107 137h301q-37 -197 -179.5 -324t-343.5 -141l-10 -35 q85 -12 135.5 -62.5t50.5 -128.5q0 -94 -74.5 -153t-189.5 -59h-136v152h123q35 0 56.5 18.5t21.5 48.5t-21.5 48.5t-56.5 18.5h-82l-15 19l40 142q-208 39 -341 199t-133 378z" />
<glyph unicode="&#xe8;" horiz-adv-x="1286" d="M71 553q0 164 74.5 298t206 210t293.5 76q166 0 298 -78.5t203 -210.5t71 -291q0 -45 -6 -88h-837q19 -113 90.5 -173.5t180.5 -60.5q77 0 138.5 34t95.5 94h314q-60 -181 -208 -287.5t-340 -106.5q-161 0 -292.5 76.5t-206.5 210.5t-75 297zM346 1540h318l112 -312h-226 zM382 673h536q-31 101 -101.5 155t-171.5 54q-99 0 -168 -55t-95 -154z" />
<glyph unicode="&#xe9;" horiz-adv-x="1286" d="M71 553q0 164 74.5 298t206 210t293.5 76q166 0 298 -78.5t203 -210.5t71 -291q0 -45 -6 -88h-837q19 -113 90.5 -173.5t180.5 -60.5q77 0 138.5 34t95.5 94h314q-60 -181 -208 -287.5t-340 -106.5q-161 0 -292.5 76.5t-206.5 210.5t-75 297zM382 673h536 q-31 101 -101.5 155t-171.5 54q-99 0 -168 -55t-95 -154zM508 1228l111 312h318l-203 -312h-226z" />
<glyph unicode="&#xea;" horiz-adv-x="1286" d="M71 553q0 164 74.5 298t206 210t293.5 76q166 0 298 -78.5t203 -210.5t71 -291q0 -45 -6 -88h-837q19 -113 90.5 -173.5t180.5 -60.5q77 0 138.5 34t95.5 94h314q-60 -181 -208 -287.5t-340 -106.5q-161 0 -292.5 76.5t-206.5 210.5t-75 297zM242 1228l235 312h339 l237 -312h-256l-150 149l-149 -149h-256zM382 673h536q-31 101 -101.5 155t-171.5 54q-99 0 -168 -55t-95 -154z" />
<glyph unicode="&#xeb;" horiz-adv-x="1286" d="M71 553q0 164 74.5 298t206 210t293.5 76q166 0 298 -78.5t203 -210.5t71 -291q0 -45 -6 -88h-837q19 -113 90.5 -173.5t180.5 -60.5q77 0 138.5 34t95.5 94h314q-60 -181 -208 -287.5t-340 -106.5q-161 0 -292.5 76.5t-206.5 210.5t-75 297zM248 1248v283h317v-283h-317 zM382 673h536q-31 101 -101.5 155t-171.5 54q-99 0 -168 -55t-95 -154zM720 1248v283h317v-283h-317z" />
<glyph unicode="&#xec;" horiz-adv-x="585" d="M9 1540h313l80 -312h-230zM144 0v1106h299v-1106h-299z" />
<glyph unicode="&#xed;" horiz-adv-x="585" d="M144 0v1106h299v-1106h-299zM164 1228l80 312h312l-162 -312h-230z" />
<glyph unicode="&#xee;" horiz-adv-x="585" d="M-71 1228l212 312h302l214 -312h-245l-120 147l-120 -147h-243zM144 0v1106h299v-1106h-299z" />
<glyph unicode="&#xef;" horiz-adv-x="585" d="M-22 1248v283h269v-283h-269zM144 0v1106h299v-1106h-299zM382 1248v283h269v-283h-269z" />
<glyph unicode="&#xf0;" horiz-adv-x="1320" d="M71 527q0 236 149.5 385t385.5 149q179 0 302 -110q-16 105 -81 186t-168 133l-185 -185l-117 108l135 135q-95 21 -199 21v253q228 0 406 -67l142 141l115 -109l-107 -107q186 -119 281 -328t95 -492q0 -312 -155.5 -491.5t-427.5 -179.5q-258 0 -414.5 153t-156.5 405z M359 529q0 -123 80.5 -204t202.5 -81t202.5 81t80.5 204t-80.5 204t-202.5 81t-202.5 -81t-80.5 -204z" />
<glyph unicode="&#xf1;" horiz-adv-x="1312" d="M144 0v1106h205l58 -137q64 76 159.5 119.5t206.5 43.5q188 0 299 -125.5t111 -336.5v-670h-299v622q0 248 -193 248q-115 0 -181.5 -77.5t-66.5 -211.5v-581h-299zM300 1237v22q0 129 62.5 203.5t173.5 74.5q55 0 95.5 -17.5t83.5 -49.5q59 -45 103 -45q32 0 52.5 23.5 t20.5 61.5v18h165v-23q0 -129 -63 -203.5t-172 -74.5q-38 0 -78.5 13.5t-57 22.5t-56.5 33q-65 39 -91 39q-30 0 -51.5 -23t-21.5 -59v-16h-165z" />
<glyph unicode="&#xf2;" horiz-adv-x="1337" d="M71 553q0 166 77.5 299.5t214.5 209t306 75.5q168 0 305 -75.5t215 -209.5t78 -299q0 -164 -78 -298t-215 -210t-305 -76q-169 0 -306 76t-214.5 210t-77.5 298zM369 1540h318l112 -312h-226zM374 553q0 -134 83 -218.5t212 -84.5t211.5 84.5t82.5 218.5t-82.5 218.5 t-211.5 84.5t-212 -84.5t-83 -218.5z" />
<glyph unicode="&#xf3;" horiz-adv-x="1337" d="M71 553q0 166 77.5 299.5t214.5 209t306 75.5q168 0 305 -75.5t215 -209.5t78 -299q0 -164 -78 -298t-215 -210t-305 -76q-169 0 -306 76t-214.5 210t-77.5 298zM374 553q0 -134 83 -218.5t212 -84.5t211.5 84.5t82.5 218.5t-82.5 218.5t-211.5 84.5t-212 -84.5 t-83 -218.5zM531 1228l111 312h318l-203 -312h-226z" />
<glyph unicode="&#xf4;" horiz-adv-x="1337" d="M71 553q0 166 77.5 299.5t214.5 209t306 75.5q168 0 305 -75.5t215 -209.5t78 -299q0 -164 -78 -298t-215 -210t-305 -76q-169 0 -306 76t-214.5 210t-77.5 298zM265 1228l235 312h339l237 -312h-256l-150 149l-148 -149h-257zM374 553q0 -134 83 -218.5t212 -84.5 t211.5 84.5t82.5 218.5t-82.5 218.5t-211.5 84.5t-212 -84.5t-83 -218.5z" />
<glyph unicode="&#xf5;" horiz-adv-x="1337" d="M71 553q0 166 77.5 299.5t214.5 209t306 75.5q168 0 305 -75.5t215 -209.5t78 -299q0 -164 -78 -298t-215 -210t-305 -76q-169 0 -306 76t-214.5 210t-77.5 298zM288 1237v22q0 129 62.5 203.5t173.5 74.5q89 0 180 -67q59 -45 102 -45q32 0 52.5 23.5t20.5 61.5v18h165 v-23q0 -129 -62.5 -203.5t-171.5 -74.5q-38 0 -78.5 13.5t-57 22.5t-56.5 33q-2 1 -10 6t-10.5 6.5t-9.5 5.5t-9.5 5.5t-8.5 4.5t-9.5 4t-8.5 3t-9 3t-8.5 1.5t-8.5 0.5q-30 0 -51.5 -23.5t-21.5 -59.5v-16h-165zM374 553q0 -134 83 -218.5t212 -84.5t211.5 84.5t82.5 218.5 t-82.5 218.5t-211.5 84.5t-212 -84.5t-83 -218.5z" />
<glyph unicode="&#xf6;" horiz-adv-x="1337" d="M71 553q0 166 77.5 299.5t214.5 209t306 75.5q168 0 305 -75.5t215 -209.5t78 -299q0 -164 -78 -298t-215 -210t-305 -76q-169 0 -306 76t-214.5 210t-77.5 298zM272 1248v283h317v-283h-317zM374 553q0 -134 83 -218.5t212 -84.5t212 84.5t83 218.5t-83 218.5t-212 84.5 t-212 -84.5t-83 -218.5zM744 1248v283h317v-283h-317z" />
<glyph unicode="&#xf7;" horiz-adv-x="1148" d="M82 546v261h984v-261h-984zM421 275q0 64 44.5 108t108.5 44t108.5 -44t44.5 -108q0 -65 -44.5 -109t-108.5 -44t-108.5 44t-44.5 109zM421 1080q0 63 44.5 107.5t108.5 44.5t108.5 -44.5t44.5 -107.5q0 -65 -44 -109t-109 -44t-109 44t-44 109z" />
<glyph unicode="&#xf8;" horiz-adv-x="1368" d="M72 560q0 162 77.5 294t213 207t302.5 75q94 0 180 -26l65 121h273l-119 -223q109 -79 170.5 -199t61.5 -263q0 -162 -76.5 -294t-211.5 -207t-301 -75q-106 0 -196 31l-71 -126h-273l130 230q-106 78 -165.5 196t-59.5 259zM359 560q0 -131 81 -217l287 522q-30 6 -62 6 q-136 0 -221 -87t-85 -224zM636 243q31 -7 71 -7q134 0 218.5 86.5t84.5 223.5q0 136 -85 221z" />
<glyph unicode="&#xf9;" horiz-adv-x="1296" d="M128 467v639h299v-605q0 -118 59 -184.5t163 -66.5t162 67t58 184v605h299v-639q0 -224 -142 -361t-377 -137q-234 0 -377.5 137t-143.5 361zM351 1540h318l112 -312h-226z" />
<glyph unicode="&#xfa;" horiz-adv-x="1296" d="M128 467v639h299v-605q0 -118 59 -184.5t163 -66.5t162 67t58 184v605h299v-639q0 -224 -142 -361t-377 -137q-234 0 -377.5 137t-143.5 361zM513 1228l111 312h318l-203 -312h-226z" />
<glyph unicode="&#xfb;" horiz-adv-x="1296" d="M128 467v639h299v-605q0 -118 59 -184.5t163 -66.5t162 67t58 184v605h299v-639q0 -224 -142 -361t-377 -137q-234 0 -377.5 137t-143.5 361zM247 1228l235 312h339l237 -312h-256l-150 149l-149 -149h-256z" />
<glyph unicode="&#xfc;" horiz-adv-x="1296" d="M128 467v639h300v-605q0 -118 58.5 -184.5t162.5 -66.5t162 67t58 184v605h299v-639q0 -224 -142 -361t-377 -137q-234 0 -377.5 137t-143.5 361zM253 1248v283h317v-283h-317zM725 1248v283h317v-283h-317z" />
<glyph unicode="&#xfd;" horiz-adv-x="1232" d="M12 1106h325l295 -680l276 680h318l-482 -1091q-69 -156 -134.5 -242.5t-152.5 -129t-211 -42.5h-123v269h104q106 0 151.5 39t97.5 167l4 9zM487 1228l111 312h318l-203 -312h-226z" />
<glyph unicode="&#xfe;" horiz-adv-x="1402" d="M144 -399v1895h299v-455q137 96 309 96q164 0 296.5 -75.5t207.5 -209.5t75 -299t-75 -299.5t-207.5 -210.5t-296.5 -76q-173 0 -309 97v-463h-299zM426 553q0 -130 85.5 -216.5t215.5 -86.5t215.5 86t85.5 217q0 130 -85.5 216.5t-215.5 86.5t-215.5 -86.5t-85.5 -216.5 z" />
<glyph unicode="&#xff;" horiz-adv-x="1232" d="M12 1106h325l295 -680l276 680h318l-482 -1091q-102 -231 -208.5 -322.5t-288.5 -91.5h-124v269h104q106 0 151.5 39t97.5 167l4 9zM228 1248v283h316v-283h-316zM699 1248v283h317v-283h-317z" />
<glyph unicode="&#x152;" horiz-adv-x="1976" d="M80 718q0 206 96 377t263.5 269.5t368.5 98.5q116 0 219 -29h830v-286h-552v-285h499v-280h-499v-295h574v-288h-852q-108 -31 -219 -31q-146 0 -279.5 56.5t-232.5 155t-157.5 238.5t-58.5 299zM394 718q0 -214 125.5 -332.5t331.5 -118.5q69 0 144 12v876 q-99 21 -156 21q-187 0 -316 -132.5t-129 -325.5z" />
<glyph unicode="&#x153;" horiz-adv-x="2172" d="M71 553q0 166 77.5 299.5t214 209t305.5 75.5q133 0 247 -51.5t193 -144.5q76 93 185.5 144.5t237.5 51.5q122 0 228.5 -44.5t181.5 -121.5t118.5 -185.5t43.5 -232.5q0 -42 -6 -84h-843q19 -113 91.5 -173t185.5 -60q78 0 139 33t95 94h314q-60 -181 -208 -287.5 t-340 -106.5q-126 0 -235.5 52.5t-186.5 145.5q-79 -94 -193.5 -146t-247.5 -52q-169 0 -305.5 76t-214 210t-77.5 298zM374 553q0 -134 82.5 -218.5t211.5 -84.5t211.5 84.5t82.5 218.5t-82.5 218.5t-211.5 84.5t-211.5 -84.5t-82.5 -218.5zM1261 673h543q-32 101 -102 155 t-171 54q-102 0 -173 -55t-97 -154z" />
<glyph unicode="&#x178;" horiz-adv-x="1390" d="M35 1434h330l331 -574l332 574h330l-505 -855v-579h-318v581zM299 1574v276h317v-276h-317zM778 1574v276h317v-276h-317z" />
<glyph unicode="&#x2c6;" horiz-adv-x="1228" d="M242 1228l235 312h339l237 -312h-257l-150 149l-148 -149h-256z" />
<glyph unicode="&#x2dc;" horiz-adv-x="1228" d="M228 1237v22q0 128 63 203t174 75q55 0 95.5 -17.5t83.5 -49.5q59 -45 102 -45q32 0 52.5 23.5t20.5 61.5v18h165v-23q0 -129 -62.5 -203.5t-171.5 -74.5q-38 0 -78.5 13.5t-57 22.5t-56.5 33q-65 39 -91 39q-30 0 -52 -23t-22 -59v-16h-165z" />
<glyph unicode="&#x2000;" horiz-adv-x="1024" />
<glyph unicode="&#x2001;" horiz-adv-x="2048" />
<glyph unicode="&#x2002;" horiz-adv-x="1024" />
<glyph unicode="&#x2003;" horiz-adv-x="2048" />
<glyph unicode="&#x2004;" horiz-adv-x="682" />
<glyph unicode="&#x2005;" horiz-adv-x="512" />
<glyph unicode="&#x2006;" horiz-adv-x="341" />
<glyph unicode="&#x2007;" horiz-adv-x="341" />
<glyph unicode="&#x2008;" horiz-adv-x="256" />
<glyph unicode="&#x2009;" horiz-adv-x="409" />
<glyph unicode="&#x200a;" horiz-adv-x="113" />
<glyph unicode="&#x2010;" horiz-adv-x="919" d="M126 431v288h668v-288h-668z" />
<glyph unicode="&#x2011;" horiz-adv-x="919" d="M126 431v288h668v-288h-668z" />
<glyph unicode="&#x2012;" horiz-adv-x="919" d="M126 431v288h668v-288h-668z" />
<glyph unicode="&#x2013;" horiz-adv-x="1310" d="M126 431v288h1059v-288h-1059z" />
<glyph unicode="&#x2014;" horiz-adv-x="1851" d="M126 431v288h1599v-288h-1599z" />
<glyph unicode="&#x2018;" horiz-adv-x="546" d="M109 917v295q0 151 83.5 242t223.5 106v-146q-79 -11 -117.5 -59.5t-38.5 -117.5h171v-320h-322z" />
<glyph unicode="&#x2019;" horiz-adv-x="530" d="M118 1166v320h322v-295q0 -151 -83.5 -242t-223.5 -106v146q79 11 117.5 59.5t38.5 117.5h-171z" />
<glyph unicode="&#x201a;" horiz-adv-x="567" d="M123 0v319h322v-294q0 -151 -83.5 -242.5t-223.5 -106.5v146q79 11 117.5 60t38.5 118h-171z" />
<glyph unicode="&#x201c;" horiz-adv-x="1017" d="M109 918v295q0 151 83.5 242t223.5 106v-146q-79 -11 -117.5 -60t-38.5 -118h171v-319h-322zM581 918v295q0 151 83.5 242t223.5 106v-146q-79 -11 -117.5 -60t-38.5 -118h171v-319h-322z" />
<glyph unicode="&#x201d;" horiz-adv-x="1003" d="M118 1166v320h322v-295q0 -151 -83.5 -242t-223.5 -106v146q79 11 117.5 59.5t38.5 117.5h-171zM590 1166v320h322v-295q0 -151 -83.5 -242t-223.5 -106v146q79 11 117.5 59.5t38.5 117.5h-171z" />
<glyph unicode="&#x201e;" horiz-adv-x="1040" d="M123 0v319h322v-294q0 -151 -83.5 -242.5t-223.5 -106.5v146q79 11 117.5 60t38.5 118h-171zM595 0v319h322v-294q0 -151 -83.5 -242.5t-223.5 -106.5v146q79 11 118 60t39 118h-172z" />
<glyph unicode="&#x2022;" horiz-adv-x="806" d="M144 600q0 111 74 185t185 74q112 0 185.5 -73.5t73.5 -185.5q0 -111 -74 -185t-185 -74q-110 0 -184.5 74.5t-74.5 184.5z" />
<glyph unicode="&#x2026;" horiz-adv-x="1421" d="M123 0v320h316v-320h-316zM553 0v320h316v-320h-316zM983 0v320h317v-320h-317z" />
<glyph unicode="&#x202f;" horiz-adv-x="409" />
<glyph unicode="&#x2039;" horiz-adv-x="811" d="M61 529v35l325 419h352l-332 -436l332 -437h-352z" />
<glyph unicode="&#x203a;" horiz-adv-x="811" d="M74 110l331 437l-331 436h352l325 -419v-35l-325 -419h-352z" />
<glyph unicode="&#x205f;" horiz-adv-x="512" />
<glyph unicode="&#x20ac;" horiz-adv-x="1331" d="M73 397l53 220h124q-3 33 -3 67q0 20 2 56h-174l54 220h169q79 201 258 321.5t405 120.5q164 0 301 -58l-60 -244q-43 19 -110.5 31.5t-127.5 12.5q-116 0 -209 -48t-151 -136h555l-56 -220h-574q-2 -18 -2 -56q0 -23 4 -67h542l-55 -220h-407q58 -82 150.5 -126 t207.5 -44q136 0 238 46v-260q-120 -45 -249 -45q-224 0 -400 116.5t-256 312.5h-229z" />
<glyph unicode="&#x2122;" horiz-adv-x="1370" d="M63 1309v125h465v-125h-163v-387h-136v387h-166zM557 922l84 512h118l150 -293l150 293h119l81 -512h-133l-48 301l-156 -301h-26l-156 302l-49 -302h-134z" />
<glyph unicode="&#x25fc;" horiz-adv-x="1105" d="M0 0v1106h1106v-1106h-1106z" />
</font>
</defs>
</svg>
